Undisputed 2002 720p BrRip x265 HEVCBay torrent download

seeders: 449
leechers: 353
updated:
Added ago by g3m696 ***** in Movies
Torrent Downloaded 10 times.
Info Hash: EE834EB59F56DF86C6E567AFFF684F0E999F90E5


Torrent Files

Undisputed 2002 720p BrRip x265 HEVCBay (Size: 383.1 MB)
  Undisputed 2002 720p BrRip x265 HEVCBay 383.1 MB

Torrent Description



hevcbay.com

Code:

General
Unique ID : 136748466626151690664383956454864940184 (0x66E0CBF2B9836ACF869462E283116C98)
Complete name : Undisputed.2002.720p.BrRip.x265.HEVCBay.com.mkv
Format : Matroska
Format version : Version 4
File size : 383 MiB
Duration : 1 h 33 min
Overall bit rate : 572 kb/s
Movie name : Undisputed.2002.720p.BrRip.x265.HEVCBay.com.mkv
Encoded date : UTC 2019-02-12 01:02:05
Writing application : hevcbay
Writing library : hevcbay.com / Lavf58.22.100
Comment : Encoded by hevcbay.com
ENCODED-BY : hevcbay.com

Video
ID : 1
Format : HEVC
Format/Info : High Efficiency Video Coding
Format profile : [email protected]@Main
Codec ID : V_MPEGH/ISO/HEVC
Duration : 1 h 33 min
Bit rate : 519 kb/s
Width : 1 280 pixels
Height : 550 pixels
Display aspect ratio : 2.35:1
Original display aspect ratio : 2.35:1
Frame rate mode : Constant
Frame rate : 23.976 (23976/1000) FPS
Color space : YUV
Chroma subsampling : 4:2:0
Bit depth : 8 bits
Bits/(Pixel*Frame) : 0.031
Stream size : 347 MiB (91%)
Writing library : Lavc58.40.100 libx265
Default : Yes
Forced : No
Color range : Limited

Audio
ID : 2
Format : AAC LC SBR PS
Format/Info : Advanced Audio Codec Low Complexity with Spectral Band Replication and Parametric Stereo
Commercial name : HE-AACv2
Format settings : NBC
Codec ID : A_AAC-29
Duration : 1 h 33 min
Bit rate : 51.5 kb/s
Channel(s) : 2 channels
Channel layout : C
Sampling rate : 48.0 kHz
Frame rate : 23.438 FPS (2048 SPF)
Compression mode : Lossy
Delay relative to video : -148 ms
Stream size : 34.5 MiB (9%)
Writing library : Lavc58.40.100 libfdk_aac
Language : English
Default : Yes
Forced : No








Related Torrents

torrent name size age seed leech
2.5 GB 10 minutes 418 164
450.2 MB 10 minutes 785 109
331.9 MB 10 minutes 580 226
203.9 MB 14 minutes 575 243
369.5 MB 14 minutes 254 347

Sharing Widget


Download torrent
383.1 MB
seeders:1214
leechers:386
Undisputed 2002 720p BrRip x265 HEVCBay



To share this torrent use the code below and insert it into comments, status messages, forum posts or your signature.

Torrent: Undisputed 2002 720p BrRip x265 HEVCBay

Comments

Latest Searches