The Walking Dead 9x09 Adaptation Adattarsi 720p H264 ita eng sub ita eng MIRCrew torrent download

seeders: 180
leechers: 454
updated:
Added ago by robbyrs ***** in TV
Torrent Downloaded 10 times.
Info Hash: FD6AF7F39B0A616941B2EDA55120A125C39B39CF


Torrent Files

The Walking Dead - 9x09 Adaptation - Adattarsi 720p H264 ita eng sub ita eng-MIRCrew (Size: 803.3 MB)
  The Walking Dead - 9x09 Adaptation - Adattarsi 720p H264 ita eng sub ita eng-MIRCrew 803.3 MB

Torrent Description



The Walking Dead - 9x09 Adaptation - Adattarsi.720p.H264.ita.eng.sub.ita.eng-MIRCrew




La nona stagione della serie televisiva The Walking Dead, composta da sedici episodi, è trasmessa in prima visione assoluta negli Stati Uniti d'America dall'emittente AMC dal 7 ottobre 2018

È trascorso un anno e mezzo dalla fine della guerra contro i salvatori.

In una Alexandria ricostruita e prospera, Rick, ora con i capelli più corti e grigi, guarda felicemente Michonne dipingere con Judith. I tre vanno fuori dalle mura per vedere uno stormo di uccelli nel campo.

Episodi:


1 Un nuovo inizio
2 The Bridge - il ponte
3 Warning Signs
4 The Obliged
5 What Comes After
6 Who Are You Now
7 Stradivarius
8 Evolution
9 Adaptation - Adattarsi







General
Unique ID : 103823327719643432970349982549158767051 (0x4E1BA5449B8C6490AA0E5C9EDA19A9CB)
Complete name : The walking dead HD tutte le stagioni\The Walking Dead S09\The Walking Dead - 9x09 Adaptation - Adattarsi.720p.H264.ita.eng.sub.ita.eng-MIRCrew\The Walking Dead - 9x09 Adaptation - Adattarsi.720p.H264.ita.eng.sub.ita.eng-MIRCrew.mkv
Format : Matroska
Format version : Version 2
File size : 803 MiB
Duration : 49mn 3s
Overall bit rate : 2 289 Kbps
Movie name : MIRCrew
Encoded date : UTC 2019-02-12 18:18:12
Writing application : Lavf54.63.100
Writing library : Lavf54.63.100
COMMENT : mircrew-releases

Video
ID : 1
Format : AVC
Format/Info : Advanced Video Codec
Format profile : [email protected]
Format settings, CABAC : Yes
Format settings, ReFrames : 2 frames
Codec ID : V_MPEG4/ISO/AVC
Duration : 49mn 3s
Bit rate : 1 900 Kbps
Width : 1 280 pixels
Height : 720 pixels
Display aspect ratio : 16:9
Frame rate mode : Variable
Frame rate : 25.000 fps
Color space : YUV
Chroma subsampling : 4:2:0
Bit depth : 8 bits
Scan type : Progressive
Bits/(Pixel*Frame) : 0.082
Stream size : 652 MiB (81%)
Writing library : x264 core 130 r2273
Encoding settings : cabac=1 / ref=2 / deblock=1:-1:-1 / analyse=0x1:0x131 / me=hex / subme=7 / psy=1 / psy_rd=1.00:0.10 / mixed_ref=0 / me_range=16 / chroma_me=1 / trellis=1 / 8x8dct=0 / cqm=0 / deadzone=21,11 / fast_pskip=1 / chroma_qp_offset=-3 / threads=6 / lookahead_threads=1 / sliced_threads=0 / nr=0 / decimate=1 / interlaced=0 / bluray_compat=0 / constrained_intra=0 / bframes=3 / b_pyramid=0 / b_adapt=1 / b_bias=0 / direct=3 / weightb=1 / open_gop=0 / weightp=2 / keyint=250 / keyint_min=25 / scenecut=40 / intra_refresh=0 / rc_lookahead=40 / rc=2pass / mbtree=1 / bitrate=1900 / ratetol=1.0 / qcomp=0.60 / qpmin=10 / qpmax=69 / qpstep=4 / cplxblur=20.0 / qblur=0.5 / vbv_maxrate=24000 / vbv_bufsize=24000 / nal_hrd=none / ip_ratio=1.40 / aq=1:1.00
Language : Italian
Default : Yes
Forced : No
_STATISTICS_WRITING_APP : mkvmerge v7.1.0 ('Good Love') 32bit built on Jul 27 2014 12:59:18
_STATISTICS_WRITING_DATE_UTC : 2019-02-11 21:22:41
_STATISTICS_TAGS : BPS DURATION NUMBER_OF_FRAMES NUMBER_OF_BYTES
DURATION : 00:49:03.800000000
NUMBER_OF_FRAMES : 73595
NUMBER_OF_BYTES : 1994488309

Audio #1
ID : 2
Format : AC-3
Format/Info : Audio Coding 3
Mode extension : CM (complete main)
Codec ID : A_AC3
Duration : 49mn 3s
Bit rate mode : Constant
Bit rate : 192 Kbps
Channel(s) : 2 channels
Channel positions : Front: L R
Sampling rate : 48.0 KHz
Bit depth : 16 bits
Compression mode : Lossy
Delay relative to video : 1mn 5s
Stream size : 67.4 MiB (8%)
Title : ITA
Language : Italian
Default : Yes
Forced : Yes
DURATION : 00:49:03.896000000
NUMBER_OF_FRAMES : 84522
NUMBER_OF_BYTES : 70653492
_STATISTICS_WRITING_APP : mkvmerge v7.1.0 ('Good Love') 32bit built on Jul 27 2014 12:59:18
_STATISTICS_WRITING_DATE_UTC : 2019-02-11 21:22:41
_STATISTICS_TAGS : BPS DURATION NUMBER_OF_FRAMES NUMBER_OF_BYTES

Audio #2
ID : 3
Format : AC-3
Format/Info : Audio Coding 3
Mode extension : CM (complete main)
Codec ID : A_AC3
Duration : 49mn 3s
Bit rate mode : Constant
Bit rate : 192 Kbps
Channel(s) : 2 channels
Channel positions : Front: L R
Sampling rate : 48.0 KHz
Bit depth : 16 bits
Compression mode : Lossy
Delay relative to video : 1mn 5s
Stream size : 67.4 MiB (8%)
Title : ENG
Language : English
Default : No
Forced : No
DURATION : 00:49:03.808000000
NUMBER_OF_FRAMES : 91994
NUMBER_OF_BYTES : 141302784
_STATISTICS_WRITING_APP : mkvmerge v7.1.0 ('Good Love') 32bit built on Jul 27 2014 12:59:18
_STATISTICS_WRITING_DATE_UTC : 2019-02-11 21:22:41
_STATISTICS_TAGS : BPS DURATION NUMBER_OF_FRAMES NUMBER_OF_BYTES












Related Torrents

torrent name size age seed leech
2.3 GB 1 minute 488 305
5.1 GB 6 minutes 190 216
628.37 MB 8 minutes 467 211
1.32 GB 8 minutes 529 271
497.7 MB 9 minutes 95 270

Sharing Widget


Download torrent
803.3 MB
seeders:1214
leechers:386
The Walking Dead - 9x09 Adaptation - Adattarsi 720p H264 ita eng sub ita eng-MIRCrew



To share this torrent use the code below and insert it into comments, status messages, forum posts or your signature.

Torrent: The Walking Dead - 9x09 Adaptation - Adattarsi 720p H264 ita eng sub ita eng-MIRCrew

Comments

Latest Searches