The Thin Red Line La sottile linea rossa (1998) 720p H264 italian english Ac3 MIRCrew torrent download

seeders: 340
leechers: 76
updated:
Added ago by robbyrs ***** in Movies
Torrent Downloaded 10 times.
Info Hash: 724C5FB45D98DFFC69902521DFF387F108386049


Torrent Files

The Thin Red Line - La sottile linea rossa (1998) 720p H264 italian english Ac3-MIRCrew (Size: 3.2 GB)
  The Thin Red Line - La sottile linea rossa (1998) 720p H264 italian english Ac3-MIRCrew 3.2 GB

Torrent Description



The Thin Red Line - La sottile linea rossa (1998).720p.H264.italian.english.Ac3-MIRCrew


NO FOUND ONLY ORIGINAL RELEASE

My release is always in double track audio italian and Original audio
for select it use VLC or dvd player home
not use wmp

La sottile linea rossa - The Thin Red Line (1998)

Quality MIRCrew on HD 1080pp da 3,1 gb mux by robbyrs










Titolo originale The Thin Red Line
Paese di produzione Stati Uniti d'America
Anno 1998
Durata 170 min
Rapporto 2,35 : 1
Genere guerra, drammatico
Regia Terrence Malick
Soggetto dal romanzo di James Jones
Sceneggiatura Terrence Malick



Jim Caviezel: soldato Witt
Sean Penn: serg. Edward Welsh
Nick Nolte: col. Gordon Tall
Elias Koteas: cap. James Staros
Ben Chaplin: soldato Jack Bell
Adrien Brody: caporale Fife
John Cusack: cap. John Gaff
Woody Harrelson: serg. Keck
Jared Leto: sottotenente Whyte
John C. Reilly: serg. Storm
George Clooney: cap. Charles Bosche
John Travolta: Gen. Quintard
John Savage: serg. Mac Cron
Thomas Jane: soldato Ash
Miranda Otto: Marty Bell
Tim Blake Nelson: soldato Tills
Kirk Acevedo: soldato Tella
Dash Mihok: soldato Doll
Nick Stahl: soldato Beade
Arie Verveen: soldato Dale
John Dee Smith: soldato Edward Train
Paul Gleeson: ten. Band
Penelope Allen: Mrs. Witt
Ken Mitsuishi: ufficiale giapponese



Guadalcanal (Isole Salomone - Sud del Pacifico), 1942: la compagnia di fucilieri Charlie di un reparto dell'esercito statunitense viene mandata alla conquista di un campo d'aviazione giapponese posto in cima a una collina dell'isola. Il gruppo di militari è guidato dal mite capitano Staros, agli ordini dell'ambizioso colonnello Tall.



U.S. Army Private Witt (AWOL) is found and imprisoned on a troop carrier by his company First Sergeant, Welsh.The men of C Company,1st Battalion,27th Infantry Regiment,25th Infantry Division have been brought to Guadalcanal as reinforcements in the campaign to secure Henderson Field and seize the island from the Japanese







General
Unique ID : 52772257760719584333626553608601694671 (0x27B39130715E4B59A4B8000EC28571CF)
Complete name : La sottile linea rossa - The Thin Red Line (1998).720p.ita.eng.sub.ita.eng-MIRCrew\La sottile linea rossa - The Thin Red Line (1998).720p.ita.eng.sub.ita.eng-MIRCrew.mkv
Format : Matroska
Format version : Version 4 / Version 2
File size : 3.15 GiB
Duration : 2h 50mn
Overall bit rate : 2 640 Kbps
Movie name : MIRCrew
Encoded date : UTC 2018-12-04 08:42:28
Writing application : mkvmerge v26.0.0 ('In The Game') 64-bit
Writing library : Lavf54.63.100
COMMENT : mircrew-releases

Video
ID : 1
Format : AVC
Format/Info : Advanced Video Codec
Format profile : [email protected]
Format settings, CABAC : Yes
Format settings, ReFrames : 2 frames
Codec ID : V_MPEG4/ISO/AVC
Duration : 2h 50mn
Bit rate : 1 900 Kbps
Width : 1 280 pixels
Height : 546 pixels
Display aspect ratio : 2.35:1
Frame rate mode : Variable
Frame rate : 23.976 fps
Color space : YUV
Chroma subsampling : 4:2:0
Bit depth : 8 bits
Scan type : Progressive
Bits/(Pixel*Frame) : 0.113
Stream size : 2.17 GiB (69%)
Title : MIRCrew
Writing library : x264 core 130 r2273
Encoding settings : cabac=1 / ref=2 / deblock=1:0:0 / analyse=0x1:0x131 / me=hex / subme=7 / psy=1 / psy_rd=1.00:0.00 / mixed_ref=0 / me_range=16 / chroma_me=1 / trellis=1 / 8x8dct=0 / cqm=0 / deadzone=21,11 / fast_pskip=1 / chroma_qp_offset=-2 / threads=6 / lookahead_threads=1 / sliced_threads=0 / nr=0 / decimate=1 / interlaced=0 / bluray_compat=0 / constrained_intra=0 / bframes=3 / b_pyramid=0 / b_adapt=1 / b_bias=0 / direct=3 / weightb=1 / open_gop=0 / weightp=2 / keyint=230 / keyint_min=23 / scenecut=40 / intra_refresh=0 / rc_lookahead=40 / rc=abr / mbtree=1 / bitrate=1900 / ratetol=1.0 / qcomp=0.60 / qpmin=10 / qpmax=69 / qpstep=4 / vbv_maxrate=24000 / vbv_bufsize=24000 / nal_hrd=none / ip_ratio=1.40 / aq=1:1.00
Language : Italian
Default : Yes
Forced : No
DURATION : 02:50:37.186000000
NUMBER_OF_FRAMES : 245447
NUMBER_OF_BYTES : 2392441815
_STATISTICS_WRITING_APP : mkvmerge v26.0.0 ('In The Game') 64-bit
_STATISTICS_WRITING_DATE_UTC : 2018-12-04 09:46:13
_STATISTICS_TAGS : BPS DURATION NUMBER_OF_FRAMES NUMBER_OF_BYTES

Audio #1
ID : 2
Format : AC-3
Format/Info : Audio Coding 3
Mode extension : CM (complete main)
Codec ID : A_AC3
Duration : 2h 50mn
Bit rate mode : Constant
Bit rate : 384 Kbps
Channel(s) : 6 channels
Channel positions : Front: L C R, Side: L R, LFE
Sampling rate : 48.0 KHz
Bit depth : 16 bits
Compression mode : Lossy
Delay relative to video : -5ms
Stream size : 469 MiB (15%)
Title : Ita Ac3 5.1
Language : Italian
Default : Yes
Forced : No
DURATION : 02:50:37.280000000
NUMBER_OF_FRAMES : 319915
NUMBER_OF_BYTES : 491389440
_STATISTICS_WRITING_APP : mkvmerge v26.0.0 ('In The Game') 64-bit
_STATISTICS_WRITING_DATE_UTC : 2018-12-04 09:46:13
_STATISTICS_TAGS : BPS DURATION NUMBER_OF_FRAMES NUMBER_OF_BYTES

Audio #2
ID : 3
Format : AC-3
Format/Info : Audio Coding 3
Mode extension : CM (complete main)
Codec ID : A_AC3
Duration : 2h 50mn
Bit rate mode : Constant
Bit rate : 384 Kbps
Channel(s) : 6 channels
Channel positions : Front: L C R, Side: L R, LFE
Sampling rate : 48.0 KHz
Bit depth : 16 bits
Compression mode : Lossy
Delay relative to video : -5ms
Stream size : 469 MiB (15%)
Title : Eng Ac3 5.1
Language : English
Default : No
Forced : No
DURATION : 02:50:37.280000000
NUMBER_OF_FRAMES : 319915
NUMBER_OF_BYTES : 491389440
_STATISTICS_WRITING_APP : mkvmerge v26.0.0 ('In The Game') 64-bit
_STATISTICS_WRITING_DATE_UTC : 2018-12-04 09:46:13
_STATISTICS_TAGS : BPS DURATION NUMBER_OF_FRAMES NUMBER_OF_BYTES

Menu
00:00:00.000 : :Main Titles: Melanesia
00:10:39.639 : :The Brig
00:15:44.402 : :The Closer to Caesar
00:20:09.583 : :Charlie Company
00:25:48.589 : :Guadalcanal
00:36:09.751 : :Witt with the Wounded
00:38:07.118 : :Hill 210
00:41:15.765 : :Dawn
00:44:23.828 : :Staros' Attack
00:55:35.249 : :Keck's Mistake
01:00:55.944 : :Property (Tella's Death)
01:05:06.069 : :Refusing an Order
01:11:06.971 : :Tall Visits the Line
01:13:29.405 : :The Unguarded Ledge
01:21:43.899 : :Welsh and Witt
01:26:28.517 : :The Bunker
01:39:47.648 : :Gaff and Tall
01:43:54.437 : :The Japanese Bivouac
01:45:20.105 : :The Mop-Up
01:56:33.486 : :Nature's Cruel
02:03:17.390 : :Staros Leaves
02:05:43.828 : :The Airfield
02:11:23.584 : :A Letter
02:14:40.114 : :The Village
02:19:39.830 : :The Copra Plantation
02:24:16.857 : :A Skirmish
02:28:14.219 : :Witt's Choice
02:32:32.268 : :Decoy
02:37:22.058 : :Welsh Reflects
02:39:27.516 : :Outbound
02:43:35.806 : :End Titles







Related Torrents

torrent name size age seed leech
8.3 GB 1 minute 372 357
412.7 MB 1 minute 84 155
264.0 MB 13 minutes 358 90
8.1 GB 13 minutes 138 158
413.3 MB 20 minutes 419 217

Sharing Widget


Download torrent
3.2 GB
seeders:1214
leechers:386
The Thin Red Line - La sottile linea rossa (1998) 720p H264 italian english Ac3-MIRCrew



To share this torrent use the code below and insert it into comments, status messages, forum posts or your signature.

Torrent: The Thin Red Line - La sottile linea rossa (1998) 720p H264 italian english Ac3-MIRCrew

Comments

Latest Searches