The Man Who Killed Hitler and Then the Bigfoot 2018 720p WEB DL x264 [MW] torrent download

seeders: 154
leechers: 151
updated:
Added ago by moviezworldz ***** in Movies
Torrent Downloaded 10 times.
Info Hash: EF0929E2DC0C98B12512CC21AA78CBA3CE3E1020


Torrent Files

The Man Who Killed Hitler and Then the Bigfoot 2018 720p WEB-DL x264 [MW] (Size: 926.9 MB)
  The Man Who Killed Hitler and Then the Bigfoot 2018 720p WEB-DL x264 [MW] 926.9 MB

Torrent Description







General
Format : Matroska
Format version : Version 4
File size : 927 MiB
Duration : 1 h 37 min
Overall bit rate : 1 325 kb/s

Video
ID : 1
Format : AVC
Format/Info : Advanced Video Codec
Format profile : [email protected]
Format settings : CABAC / 4 Ref Frames
Format settings, CABAC : Yes
Format settings, RefFrames : 4 frames
Codec ID : V_MPEG4/ISO/AVC
Duration : 1 h 37 min
Bit rate : 1 200 kb/s
Width : 1 280 pixels
Height : 532 pixels
Display aspect ratio : 2.40:1
Frame rate mode : Constant
Frame rate : 23.976 (24000/1001) FPS
Color space : YUV
Chroma subsampling : 4:2:0
Bit depth : 8 bits
Scan type : Progressive
Bits/(Pixel*Frame) : 0.073
Stream size : 836 MiB (90%)
Writing library : x264 core 157 r2935 545de2f

Audio
ID : 2
Format : AAC LC
Codec ID : A_AAC-2
Duration : 1 h 37 min
Bit rate : 128 kb/s
Channel(s) : 2 channels
Channel layout : L R
Sampling rate : 48.0 kHz
Frame rate : 46.875 FPS (1024 SPF)
Compression mode : Lossy
Stream size : 89.7 MiB (10%)
Language : English
Default : Yes
Forced : No


Click To View Image









Related Torrents

torrent name size age seed leech
1.0 GB 4 minutes 782 437
927.9 MB 4 minutes 401 40
394.0 MB 4 minutes 178 365
3.5 GB 4 minutes 21 268
36.5 MB 8 minutes 394 295

Sharing Widget


Download torrent
926.9 MB
seeders:1214
leechers:386
The Man Who Killed Hitler and Then the Bigfoot 2018 720p WEB-DL x264 [MW]



To share this torrent use the code below and insert it into comments, status messages, forum posts or your signature.

Torrent: The Man Who Killed Hitler and Then the Bigfoot 2018 720p WEB-DL x264 [MW]

Comments

Latest Searches