The Lego Movie 2 The Second Part 2019 Movies HD Cam x264 Clean Audio New Source with Sample ☻rDX☻ torrent download

seeders: 305
leechers: 168
updated:
Added ago by nehalpuja ***** in Movies
Torrent Downloaded 10 times.
Info Hash: 0277FD3A38D718FFA6AC7BEB40677F2E91AC81AF


Torrent Files

The Lego Movie 2 The Second Part 2019 Movies HD Cam x264 Clean Audio New Source with Sample ☻rDX☻ (Size: 709.1 MB)
  The Lego Movie 2 The Second Part 2019 Movies HD Cam x264 Clean Audio New Source with Sample ☻rDX☻ 709.1 MB

Torrent Description



The Lego Movie 2 The Second Part 2019 Movies HD Cam x264 Clean Audio New Source with Sample ☻rDX☻
===============================================================================================

SCREEN SHOTS:



or

http://iphonehosting.eu/2018/12/advocate/1.html

File size : 702 MiB
Duration : 1 h 34 min
Overall bit rate : 1 039 kb/s
Movie name : The Lego Movie 2 The Second Part 2019 Movies HD Cam x264 Clean Audio New Source ☻rDX☻

Video
ID : 2
Format : AVC
Format/Info : Advanced Video Codec
Format profile : [email protected]
Format settings, CABAC : Yes
Format settings, ReFrames : 2 frames
Codec ID : V_MPEG4/ISO/AVC
Duration : 1 h 34 min
Bit rate : 954 kb/s
Width : 700 pixels
Height : 294 pixels
Display aspect ratio : 2.40:1
Frame rate mode : Constant
Frame rate : 29.970 (30000/1001) FPS
Color space : YUV
Chroma subsampling : 4:2:0
Bit depth : 8 bits
Scan type : Progressive
Bits/(Pixel*Frame) : 0.155
Stream size : 645 MiB (92%)
Title : ☻rDX☻
Default : Yes
Forced : No

Audio
ID : 1
Format : AC-3
Format/Info : Audio Coding 3
Mode extension : CM (complete main)
Format settings, Endianness : Big
Codec ID : A_AC3
Duration : 1 h 34 min
Bit rate mode : Constant
Bit rate : 64.0 kb/s
Channel(s) : 2 channels
Channel positions : Front: L R
Sampling rate : 44.1 kHz
Frame rate : 28.711 FPS (1536 spf)
Bit depth : 16 bits
Compression mode : Lossy
Stream size : 43.3 MiB (6%)
Title : ☻rDX☻
Default : Yes
Forced : No

http://www.imdb.com/title/tt3513498



Related Torrents

torrent name size age seed leech
68.56 MB 7 minutes 694 420
463.43 MB 7 minutes 732 309
1.56 GB 7 minutes 120 263
238.82 MB 7 minutes 348 62
2.34 GB 7 minutes 647 183

Sharing Widget


Download torrent
709.1 MB
seeders:1214
leechers:386
The Lego Movie 2 The Second Part 2019 Movies HD Cam x264 Clean Audio New Source with Sample ☻rDX☻



To share this torrent use the code below and insert it into comments, status messages, forum posts or your signature.

Torrent: The Lego Movie 2 The Second Part 2019 Movies HD Cam x264 Clean Audio New Source with Sample ☻rDX☻

Comments

Latest Searches