The Final Wish 2018 720p WEB DL x264 [MW] torrent download

seeders: 527
leechers: 182
updated:
Added ago by moviezworldz ***** in Movies
Torrent Downloaded 10 times.
Info Hash: 0D9FD762160FA91DBE727D09B1F9AA6A4CA6FB25


Torrent Files

The Final Wish 2018 720p WEB-DL x264 [MW] (Size: 799.8 MB)
  The Final Wish 2018 720p WEB-DL x264 [MW] 799.8 MB

Torrent Description







General
Format : Matroska
Format version : Version 4
File size : 800 MiB
Duration : 1 h 35 min
Overall bit rate : 1 166 kb/s

Video
ID : 1
Format : AVC
Format/Info : Advanced Video Codec
Format profile : [email protected]
Format settings : CABAC / 4 Ref Frames
Format settings, CABAC : Yes
Format settings, RefFrames : 4 frames
Codec ID : V_MPEG4/ISO/AVC
Duration : 1 h 35 min
Bit rate : 1 050 kb/s
Width : 1 280 pixels
Height : 534 pixels
Display aspect ratio : 2.40:1
Frame rate mode : Constant
Frame rate : 23.976 (24000/1001) FPS
Color space : YUV
Chroma subsampling : 4:2:0
Bit depth : 8 bits
Scan type : Progressive
Bits/(Pixel*Frame) : 0.064
Stream size : 710 MiB (89%)
Writing library : x264 core 157 r2935 545de2f

Audio
ID : 2
Format : AAC LC
Codec ID : A_AAC-2
Duration : 1 h 35 min
Bit rate : 128 kb/s
Channel(s) : 2 channels
Channel layout : L R
Sampling rate : 48.0 kHz
Frame rate : 46.875 FPS (1024 SPF)
Compression mode : Lossy
Stream size : 88.0 MiB (11%)
Language : English
Default : Yes
Forced : No


Click To View Image









Related Torrents

torrent name size age seed leech
697.4 MB 1 minute 725 428
477.9 MB 1 minute 354 149
4.0 GB 3 minutes 503 65
85.4 MB 5 minutes 283 289
1.2 GB 5 minutes 565 388

Sharing Widget


Download torrent
799.8 MB
seeders:1214
leechers:386
The Final Wish 2018 720p WEB-DL x264 [MW]



To share this torrent use the code below and insert it into comments, status messages, forum posts or your signature.

Torrent: The Final Wish 2018 720p WEB-DL x264 [MW]

Comments

Latest Searches