The Favourite 2018 720p WEB DL x265 HEVCBay torrent download

seeders: 343
leechers: 151
updated:
Added ago by g3m696 ***** in Movies
Torrent Downloaded 10 times.
Info Hash: 85422BC054DE4A416D9900CC2C5EAC453F33C10B


Torrent Files

The Favourite 2018 720p WEB-DL x265 HEVCBay (Size: 422.2 MB)
  The Favourite 2018 720p WEB-DL x265 HEVCBay 422.2 MB

Torrent Description



hevcbay.com

Code:

General
Unique ID : 259698591689918218852919124556536915767 (0xC360212200892CC1AEC0D19C43C8A737)
Complete name : The.Favourite.2018.720p.WEB-DL.x265.HEVCBay.com.mkv
Format : Matroska
Format version : Version 4
File size : 422 MiB
Duration : 1 h 59 min
Overall bit rate : 494 kb/s
Movie name : The.Favourite.2018.720p.WEB-DL.x265.HEVCBay.com.mkv
Encoded date : UTC 2019-02-12 14:15:27
Writing application : hevcbay
Writing library : hevcbay.com / Lavf58.22.100
Comment : Encoded by hevcbay.com
ENCODED-BY : hevcbay.com

Video
ID : 1
Format : HEVC
Format/Info : High Efficiency Video Coding
Format profile : [email protected]@Main
Codec ID : V_MPEGH/ISO/HEVC
Duration : 1 h 59 min
Bit rate : 438 kb/s
Width : 1 280 pixels
Height : 692 pixels
Display aspect ratio : 1.85:1
Frame rate mode : Constant
Frame rate : 23.976 (24000/1001) FPS
Color space : YUV
Chroma subsampling : 4:2:0
Bit depth : 8 bits
Bits/(Pixel*Frame) : 0.021
Stream size : 374 MiB (89%)
Writing library : Lavc58.42.102 libx265
Language : English
Default : Yes
Forced : No
Color range : Limited

Audio
ID : 2
Format : AAC LC SBR PS
Format/Info : Advanced Audio Codec Low Complexity with Spectral Band Replication and Parametric Stereo
Commercial name : HE-AACv2
Format settings : NBC
Codec ID : A_AAC-29
Duration : 1 h 59 min
Bit rate : 54.1 kb/s
Channel(s) : 2 channels
Channel layout : C
Sampling rate : 48.0 kHz
Frame rate : 23.438 FPS (2048 SPF)
Compression mode : Lossy
Delay relative to video : -190 ms
Stream size : 46.3 MiB (11%)
Writing library : Lavc58.42.102 libfdk_aac
Language : English
Default : Yes
Forced : No








Related Torrents

torrent name size age seed leech
2.49 GB 19 seconds 421 380
306.28 MB 19 seconds 418 354
229.28 MB 19 seconds 63 343
825.83 MB 19 seconds 458 321
826.15 MB 19 seconds 147 250

Sharing Widget


Download torrent
422.2 MB
seeders:1214
leechers:386
The Favourite 2018 720p WEB-DL x265 HEVCBay



To share this torrent use the code below and insert it into comments, status messages, forum posts or your signature.

Torrent: The Favourite 2018 720p WEB-DL x265 HEVCBay

Comments

Latest Searches