The Core (2003) 1080p 10bit Bluray x265 HEVC [Org DD 5 1 Hindi + DD 5 1 English] MSubs ~ TombDoc torrent download

seeders: 735
leechers: 254
updated:
Added ago by McuDudeS ***** in Movies
Torrent Downloaded 10 times.
Info Hash: 26BD4520A38227B7CEC204C27278226DA5D95473


Torrent Files

The Core (2003) 1080p 10bit Bluray x265 HEVC [Org DD 5 1 Hindi + DD 5 1 English] MSubs ~ TombDoc (Size: 4.2 GB)
  The Core (2003) 1080p 10bit Bluray x265 HEVC [Org DD 5 1 Hindi + DD 5 1 English] MSubs ~ TombDoc 4.2 GB

Torrent Description





Earth has a deadline...





The Core (2003) 1080p 10bit Bluray x265 HEVC [Org DD 5.1 Hindi + DD 5.1 English] MSubs ~ TombDoc


Org Untouched DD+ 5.1 640Kbps Hindi Audio Hammer {Thanks}


Code:

Format : Matroska
Format version : Version 4
File size : 4.17 GiB
Duration : 2 h 14 min
Overall bit rate : 4 428 kb/s
Writing frontend : TombDoc

Video
ID : 1
Format : HEVC
Format/Info : High Efficiency Video Coding
Format profile : Main [email protected]@Main
Codec ID : V_MPEGH/ISO/HEVC
Duration : 2 h 14 min
Bit rate : 3 350 kb/s
Width : 1 920 pixels
Height : 816 pixels
Display aspect ratio : 2.35:1
Frame rate mode : Constant
Frame rate : 23.976 (24000/1001) FPS
Color space : YUV
Chroma subsampling : 4:2:0
Bit depth : 10 bits
Bits/(Pixel*Frame) : 0.089
Stream size : 3.16 GiB (76%)
Writing library : x265 3.0_RC+11-9a975542fe39:[Windows][MSVC 1920][64 bit] 10bit
Encoding settings : cpuid=1049583 / frame-threads=3 / numa-pools=8 / wpp / no-pmode / no-pme / no-psnr / no-ssim / log-level=2 / input-csp=1 / input-res=1920x816 / interlace=0 / total-frames=194152 / level-idc=0 / high-tier=1 / uhd-bd=0 / ref=4 / no-allow-non-conformance / no-repeat-headers / annexb / no-aud / no-hrd / info / hash=0 / no-temporal-layers / open-gop / min-keyint=23 / keyint=250 / gop-lookahead=0 / bframes=8 / b-adapt=2 / b-pyramid / bframe-bias=0 / rc-lookahead=25 / lookahead-slices=4 / scenecut=40 / radl=0 / no-splice / no-intra-refresh / ctu=64 / min-cu-size=8 / rect / no-amp / max-tu-size=32 / tu-inter-depth=1 / tu-intra-depth=1 / limit-tu=0 / rdoq-level=2 / dynamic-rd=0.00 / ssim-rd / signhide / no-tskip / nr-intra=0 / nr-inter=0 / no-constrained-intra / strong-intra-smoothing / max-merge=3 / limit-refs=3 / limit-modes / me=3 / subme=3 / merange=57 / temporal-mvp / weightp / no-weightb / no-analyze-src-pics / deblock=0:0 / sao / no-sao-non-deblock / rd=4 / no-early-skip / rskip / no-fast-intra / no-tskip-fast / no-cu-lossless / no-b-intra / no-splitrd-skip / rdpenalty=0 / psy-rd=0.00 / psy-rdoq=1.00 / no-rd-refine / no-lossless / cbqpoffs=0 / crqpoffs=0 / rc=abr / bitrate=3350 / qcomp=0.60 / qpstep=4 / stats-write=0 / stats-read=2 / cplxblur=20.0 / qblur=0.5 / ipratio=1.40 / pbratio=1.30 / aq-mode=3 / aq-strength=1.00 / cutree / zone-count=0 / no-strict-cbr / qg-size=32 / no-rc-grain / qpmax=69 / qpmin=0 / no-const-vbv / sar=0 / overscan=0 / videoformat=5 / range=0 / colorprim=2 / transfer=2 / colormatrix=2 / chromaloc=0 / display-window=0 / max-cll=0,0 / min-luma=0 / max-luma=1023 / log2-max-poc-lsb=8 / vui-timing-info / vui-hrd-info / slices=1 / no-opt-qp-pps / no-opt-ref-list-length-pps / no-multi-pass-opt-rps / scenecut-bias=0.05 / no-opt-cu-delta-qp / aq-motion / no-hdr / no-hdr-opt / no-dhdr10-opt / no-idr-recovery-sei / analysis-reuse-level=5 / scale-factor=0 / refine-intra=0 / refine-inter=0 / refine-mv=0 / refine-ctu-distortion=0 / no-limit-sao / ctu-info=0 / no-lowpass-dct / refine-analysis-type=0 / copy-pic=1 / max-ausize-factor=1.0 / no-dynamic-refine / no-single-sei / hevc-aq / qp-adaptation-range=1.00
Default : Yes
Forced : No

Audio #1
ID : 2
Format : E-AC-3
Format/Info : Enhanced AC-3
Commercial name : Dolby Digital Plus
Codec ID : A_EAC3
Duration : 2 h 14 min
Bit rate mode : Constant
Bit rate : 640 kb/s
Channel(s) : 6 channels
Channel layout : L R C LFE Ls Rs
Sampling rate : 48.0 kHz
Frame rate : 31.250 FPS (1536 SPF)
Compression mode : Lossy
Delay relative to video : 25 ms
Stream size : 618 MiB (14%)
Title : Org Amz DD+ 5.1 640Kbps ~ TombDoc
Language : Hindi
Service kind : Complete Main
Default : Yes
Forced : Yes

Audio #2
ID : 3
Format : AC-3
Format/Info : Audio Coding 3
Commercial name : Dolby Digital
Codec ID : A_AC3
Duration : 2 h 14 min
Bit rate mode : Constant
Bit rate : 384 kb/s
Channel(s) : 6 channels
Channel layout : L R C LFE Ls Rs
Sampling rate : 48.0 kHz
Frame rate : 31.250 FPS (1536 SPF)
Bit depth : 16 bits
Compression mode : Lossy
Stream size : 371 MiB (9%)
Title : DD 5.1 English
Language : English
Service kind : Complete Main
Default : No
Forced : No

Text #1
ID : 4
Format : PGS
Muxing mode : zlib
Codec ID : S_HDMV/PGS
Codec ID/Info : Picture based subtitle format used on BDs/HD-DVDs
Duration : 2 h 13 min
Bit rate : 47.2 kb/s
Count of elements : 3186
Stream size : 45.2 MiB (1%)
Title : Hindi BD-PGS
Language : Hindi
Default : Yes
Forced : Yes

Text #2
ID : 5
Format : PGS
Muxing mode : zlib
Codec ID : S_HDMV/PGS
Codec ID/Info : Picture based subtitle format used on BDs/HD-DVDs
Duration : 1 h 54 min
Bit rate : 1 292 b/s
Count of elements : 98
Stream size : 1.06 MiB (0%)
Title : Hindi BD-PGS {Forced}
Language : Hindi
Default : No
Forced : No

Text #3
ID : 6
Format : PGS
Muxing mode : zlib
Codec ID : S_HDMV/PGS
Codec ID/Info : Picture based subtitle format used on BDs/HD-DVDs
Duration : 2 h 13 min
Bit rate : 47.5 kb/s
Count of elements : 2994
Stream size : 45.5 MiB (1%)
Title : Eng BD-PGS
Language : English
Default : No
Forced : No

Text #4
ID : 7
Format : PGS
Muxing mode : zlib
Codec ID : S_HDMV/PGS
Codec ID/Info : Picture based subtitle format used on BDs/HD-DVDs
Duration : 2 h 14 min
Bit rate : 52.4 kb/s
Count of elements : 3392
Stream size : 50.2 MiB (1%)
Title : Eng BD-PGS-SDH
Language : English
Default : No
Forced : No

Menu
00:00:00.000 : en:Unexplained Deaths
00:07:12.807 : en:Frenzied Birds
00:11:09.001 : en:Endeavour Landing
00:18:15.260 : en:Government Secrets
00:27:57.342 : en:Unobtainium
00:32:53.972 : en:Help From the Rat
00:35:58.489 : en:The Crew
00:40:12.993 : en:Preparing for the Mission
00:47:26.760 : en:Superstorm
00:50:08.463 : en:Virgil Is Launched
01:01:19.592 : en:Giant Gem Bubble
01:11:50.055 : en:Serge
01:22:25.899 : en:Project Destiny
01:29:28.196 : en:Em Tear
01:33:43.034 : en:Plan D
01:39:00.643 : en:Worth Dying For
01:44:38.355 : en:Stones in the Pond
01:52:21.109 : en:Healing the Earth
01:58:07.246 : en:Saved By Whales
02:03:58.013 : en:Unsung Heroes



Code:

Source: The Core 2003 BluRay 1080p DTS-HD MA 5.1 AVC REMUX-S3R





Related Torrents

torrent name size age seed leech
2.7 GB 2 minutes 231 226
1.0 GB 3 minutes 352 246
350.8 MB 3 minutes 732 371
269.0 MB 3 minutes 599 183
956.0 MB 3 minutes 49 18

Sharing Widget


Download torrent
4.2 GB
seeders:1214
leechers:386
The Core (2003) 1080p 10bit Bluray x265 HEVC [Org DD 5 1 Hindi + DD 5 1 English] MSubs ~ TombDoc



To share this torrent use the code below and insert it into comments, status messages, forum posts or your signature.

Torrent: The Core (2003) 1080p 10bit Bluray x265 HEVC [Org DD 5 1 Hindi + DD 5 1 English] MSubs ~ TombDoc

Comments

Latest Searches