Suspiria 1977 REMASTERED ITALIAN 720p BrRip x265 HEVCBay torrent download

seeders: 310
leechers: 382
updated:
Added ago by g3m696 ***** in Movies
Torrent Downloaded 10 times.
Info Hash: F02075039E1E6616B0A12B4F9461DC28E9FF4B9F


Torrent Files

Suspiria 1977 REMASTERED ITALIAN 720p BrRip x265 HEVCBay (Size: 261.4 MB)
  Suspiria 1977 REMASTERED ITALIAN 720p BrRip x265 HEVCBay 261.4 MB

Torrent Description



hevcbay.com

Code:

General
Unique ID : 42781042422648637995190909866507192954 (0x202F543DA117903EBE85BD981F134A7A)
Complete name : Suspiria.1977.REMASTERED.ITALIAN.720p.BrRip.x265.HEVCBay.com.mkv
Format : Matroska
Format version : Version 4
File size : 261 MiB
Duration : 1 h 39 min
Overall bit rate : 369 kb/s
Movie name : Suspiria.1977.REMASTERED.ITALIAN.720p.BrRip.x265.HEVCBay.com.mkv
Encoded date : UTC 2019-02-12 01:29:00
Writing application : hevcbay
Writing library : hevcbay.com / Lavf58.22.100
Comment : Encoded by hevcbay.com
ENCODED-BY : hevcbay.com

Video
ID : 1
Format : HEVC
Format/Info : High Efficiency Video Coding
Format profile : [email protected]@Main
Codec ID : V_MPEGH/ISO/HEVC
Duration : 1 h 39 min
Bit rate : 319 kb/s
Width : 1 280 pixels
Height : 544 pixels
Display aspect ratio : 2.35:1
Frame rate mode : Constant
Frame rate : 24.000 FPS
Color space : YUV
Chroma subsampling : 4:2:0
Bit depth : 8 bits
Bits/(Pixel*Frame) : 0.019
Stream size : 226 MiB (87%)
Writing library : Lavc58.42.102 libx265
Default : Yes
Forced : No
Color range : Limited

Audio
ID : 2
Format : AAC LC SBR PS
Format/Info : Advanced Audio Codec Low Complexity with Spectral Band Replication and Parametric Stereo
Commercial name : HE-AACv2
Format settings : NBC
Codec ID : A_AAC-29
Duration : 1 h 39 min
Bit rate : 48.0 kb/s
Channel(s) : 2 channels
Channel layout : C
Sampling rate : 48.0 kHz
Frame rate : 23.438 FPS (2048 SPF)
Compression mode : Lossy
Delay relative to video : -148 ms
Stream size : 33.9 MiB (13%)
Writing library : Lavc58.42.102 libfdk_aac
Language : Italian
Default : Yes
Forced : No

Text #1
ID : 3
Format : UTF-8
Codec ID : S_TEXT/UTF8
Codec ID/Info : UTF-8 Plain Text
Duration : 1 h 33 min
Bit rate : 35 b/s
Count of elements : 603
Stream size : 24.3 KiB (0%)
Language : English
Default : Yes
Forced : Yes

Text #2
ID : 4
Format : UTF-8
Codec ID : S_TEXT/UTF8
Codec ID/Info : UTF-8 Plain Text
Duration : 1 h 33 min
Bit rate : 34 b/s
Count of elements : 607
Stream size : 23.4 KiB (0%)
Language : Italian
Default : No
Forced : No









Related Torrents

torrent name size age seed leech
20.5 GB 11 seconds 599 213
179.8 MB 11 seconds 624 179
14.1 GB 11 seconds 448 208
8.3 GB 11 seconds 720 385
3.5 MB 11 seconds 515 255

Sharing Widget


Download torrent
261.4 MB
seeders:1214
leechers:386
Suspiria 1977 REMASTERED ITALIAN 720p BrRip x265 HEVCBay



To share this torrent use the code below and insert it into comments, status messages, forum posts or your signature.

Torrent: Suspiria 1977 REMASTERED ITALIAN 720p BrRip x265 HEVCBay

Comments

Latest Searches