Robin Hood 2018 720p BluRay x264 [MW] torrent download

seeders: 80
leechers: 152
updated:
Added ago by moviezworldz ***** in Movies
Torrent Downloaded 10 times.
Info Hash: AAF9ABBA3917929E0E6C268F4B8B9EAB3E193A78


Torrent Files

Robin Hood 2018 720p BluRay x264 [MW] (Size: 1.1 GB)
  Robin Hood 2018 720p BluRay x264 [MW] 1.1 GB

Torrent Description







General
Format : Matroska
Format version : Version 4
File size : 1.07 GiB
Duration : 1 h 56 min
Overall bit rate : 1 316 kb/s

Video
ID : 1
Format : AVC
Format/Info : Advanced Video Codec
Format profile : [email protected]
Format settings : CABAC / 4 Ref Frames
Format settings, CABAC : Yes
Format settings, RefFrames : 4 frames
Codec ID : V_MPEG4/ISO/AVC
Duration : 1 h 56 min
Bit rate : 1 200 kb/s
Width : 1 280 pixels
Height : 532 pixels
Display aspect ratio : 2.40:1
Frame rate mode : Constant
Frame rate : 23.976 (24000/1001) FPS
Color space : YUV
Chroma subsampling : 4:2:0
Bit depth : 8 bits
Scan type : Progressive
Bits/(Pixel*Frame) : 0.073
Stream size : 984 MiB (90%)
Writing library : x264 core 157 r2935 545de2f

Audio
ID : 2
Format : AAC LC
Codec ID : A_AAC-2
Duration : 1 h 56 min
Bit rate : 128 kb/s
Channel(s) : 2 channels
Channel layout : L R
Sampling rate : 48.0 kHz
Frame rate : 46.875 FPS (1024 SPF)
Compression mode : Lossy
Stream size : 107 MiB (10%)
Language : English
Default : Yes
Forced : No


Click To View Image









Related Torrents

torrent name size age seed leech
2.0 GB 13 seconds 791 41
1.2 GB 13 seconds 634 456
29.8 MB 3 minutes 355 308
1.0 GB 7 minutes 57 32
927.9 MB 7 minutes 751 407

Sharing Widget


Download torrent
1.1 GB
seeders:1214
leechers:386
Robin Hood 2018 720p BluRay x264 [MW]



To share this torrent use the code below and insert it into comments, status messages, forum posts or your signature.

Torrent: Robin Hood 2018 720p BluRay x264 [MW]

Comments

Latest Searches