Race 2 (2013) Hindi 720p WEB DL x264 AAC ESub Sun George (Requested) torrent download

seeders: 423
leechers: 373
updated:
Added ago by Sungeorge ***** in Movies
Torrent Downloaded 10 times.
Info Hash: 735C3B429734288CED259498626543848221D350


Torrent Files

Race 2 (2013) Hindi 720p WEB-DL x264 AAC ESub-Sun George (Requested) (Size: 1.6 GB)
  Race 2 (2013) Hindi 720p WEB-DL x264 AAC ESub-Sun George (Requested) 1.6 GB

Torrent Description



Race 2 (2013) Hindi 720p WEB-DL x264 AAC ESub-Sun George (Requested)






http://www.imdb.com/title/tt1375789/













===================================================================


General
Format : Matroska
Format version : Version 4 / Version 2
File size : 1.62 GiB
Duration : 2 h 22 min
Overall bit rate : 1 620 kb/s
Movie name : Race 2 (2013) Hindi 720p WEB-DL x264 AAC ESub-Sun George (Requested)


===================================================================


Video
ID : 1
Format : AVC
Format/Info : Advanced Video Codec
Format profile : [email protected]
Format settings : CABAC / 5 Ref Frames
Format settings, CABAC : Yes
Format settings, ReFrames : 5 frames
Codec ID : V_MPEG4/ISO/AVC
Duration : 2 h 22 min
Bit rate : 1 500 kb/s
Width : 1 280 pixels
Height : 720 pixels
Display aspect ratio : 16:9
Frame rate mode : Constant
Frame rate : 24.000 FPS
Color space : YUV
Chroma subsampling : 4:2:0
Bit depth : 8 bits
Scan type : Progressive
Bits/(Pixel*Frame) : 0.068
Stream size : 1.49 GiB (92%)
Title : Sun George


===================================================================


Audio
ID : 2
Format : AAC LC
Format/Info : Advanced Audio Codec Low Complexity
Codec ID : A_AAC-2
Duration : 2 h 22 min
Bit rate : 125 kb/s
Channel(s) : 2 channels
Channel layout : L R
Sampling rate : 48.0 kHz
Frame rate : 46.875 FPS (1024 SPF)
Compression mode : Lossy
Stream size : 128 MiB (8%)
Title : Sun George
Language : Hindi
Default : Yes
Forced : No

Text
ID : 3
Format : UTF-8
Codec ID : S_TEXT/UTF8
Codec ID/Info : UTF-8 Plain Text
Duration : 2 h 14 min
Bit rate : 42 b/s
Count of elements : 1534
Stream size : 42.4 KiB (0%)
Title : Sun George
Language : English
Default : Yes
Forced : Yes





















Related Torrents

torrent name size age seed leech
250.7 MB 2 minutes 624 371
1.9 GB 2 minutes 247 460
1.8 GB 6 minutes 71 235
7.4 GB 7 minutes 65 466
1.63 GB 11 minutes 508 144

Sharing Widget


Download torrent
1.6 GB
seeders:1214
leechers:386
Race 2 (2013) Hindi 720p WEB-DL x264 AAC ESub-Sun George (Requested)



To share this torrent use the code below and insert it into comments, status messages, forum posts or your signature.

Torrent: Race 2 (2013) Hindi 720p WEB-DL x264 AAC ESub-Sun George (Requested)

Comments

Latest Searches