Primal Fear 1996 1080p BluRay x264 Eng Hindi AC3 DD 5 1 [Team SSX] torrent download

seeders: 55
leechers: 36
updated:
Added ago by DarkRelease ***** in Movies
Torrent Downloaded 10 times.
Info Hash: E475D72E850935AAD816BFB670CC1E44AB2D1378


Torrent Files

Primal Fear 1996 1080p BluRay x264 Eng-Hindi AC3 DD 5 1 [Team SSX] (Size: 2.7 GB)
  Primal Fear 1996 1080p BluRay x264 Eng-Hindi AC3 DD 5 1 [Team SSX] 2.7 GB

Torrent Description





Primal Fear 1996 1080p BluRay x264 Eng-Hindi AC3 DD 5.1 [Team SSX]






General

Format : Matroska
Format version : Version 4
File size : 2.66 GiB
Duration : 2 h 10 min
Overall bit rate : 2 921 kb/s
Movie name : Primal Fear 1996 1080p BluRay x264 Eng-Hindi AC3 DD 5.1 [Team SSX]

Video
ID : 1
Format : AVC
Format/Info : Advanced Video Codec
Format profile : [email protected]
Format settings : CABAC / 4 Ref Frames
Format settings, CABAC : Yes
Format settings, RefFrames : 4 frames
Codec ID : V_MPEG4/ISO/AVC
Duration : 2 h 10 min
Bit rate : 2 150 kb/s
Width : 1 920 pixels
Height : 1 072 pixels
Display aspect ratio : 16:9
Frame rate mode : Constant
Frame rate : 23.976 (24000/1001) FPS
Color space : YUV
Chroma subsampling : 4:2:0
Bit depth : 8 bits
Scan type : Progressive
Bits/(Pixel*Frame) : 0.044
Stream size : 1.96 GiB (74%)
Title : TEAM SSX
Writing library : x264 core 155
Default : Yes
Forced : No

Audio #1
ID : 2
Format : AAC LC
Format/Info : Advanced Audio Codec Low Complexity
Codec ID : A_AAC-2
Duration : 2 h 10 min
Bit rate : 130 kb/s
Channel(s) : 2 channels
Channel layout : L R
Sampling rate : 48.0 kHz
Frame rate : 46.875 FPS (1024 SPF)
Compression mode : Lossy
Delay relative to video : -43 ms
Stream size : 121 MiB (4%)
Title : TEAM SSX
Language : English
Default : No
Forced : No

Audio #2
ID : 3
Format : E-AC-3
Format/Info : Enhanced AC-3
Commercial name : Dolby Digital Plus
Codec ID : A_EAC3
Duration : 2 h 10 min
Bit rate mode : Constant
Bit rate : 640 kb/s
Channel(s) : 6 channels
Channel layout : L R C LFE Ls Rs
Sampling rate : 48.0 kHz
Frame rate : 31.250 FPS (1536 SPF)
Compression mode : Lossy
Delay relative to video : 957 ms
Stream size : 597 MiB (22%)
Title : TEAM SSX
Language : Hindi
Service kind : Complete Main
Default : Yes
Forced : No














Related Torrents

torrent name size age seed leech
850.9 MB 2 minutes 638 284
13.6 GB 2 minutes 604 324
1.1 GB 2 minutes 610 218
7.7 GB 2 minutes 193 282
1.5 GB 2 minutes 362 174

Sharing Widget


Download torrent
2.7 GB
seeders:1214
leechers:386
Primal Fear 1996 1080p BluRay x264 Eng-Hindi AC3 DD 5 1 [Team SSX]



To share this torrent use the code below and insert it into comments, status messages, forum posts or your signature.

Torrent: Primal Fear 1996 1080p BluRay x264 Eng-Hindi AC3 DD 5 1 [Team SSX]

Comments

Latest Searches