Primal Fear (1996) 1080p 10bit Bluray x265 HEVC [Org DD 5 1 Hindi + DD 5 1 English] ESub ~ TombDoc torrent download

seeders: 750
leechers: 112
updated:
Added ago by McuDudeS ***** in Movies
Torrent Downloaded 10 times.
Info Hash: 90B980D2F2EC823187CAAB8826288811D16C87FE


Torrent Files

Primal Fear (1996) 1080p 10bit Bluray x265 HEVC [Org DD 5 1 Hindi + DD 5 1 English] ESub ~ TombDoc (Size: 4.0 GB)
  Primal Fear (1996) 1080p 10bit Bluray x265 HEVC [Org DD 5 1 Hindi + DD 5 1 English] ESub ~ TombDoc 4.0 GB

Torrent Description





Don't believe everything you see...





Primal Fear (1996) 1080p 10bit Bluray x265 HEVC [Org DD 5.1 Hindi + DD 5.1 English] ESub ~ TombDoc


Org Untouched DD+ 5.1 640Kbps Hindi Audio By Hammer {Thanks}


Code:

Format : Matroska
Format version : Version 4
File size : 4.00 GiB
Duration : 2 h 10 min
Overall bit rate : 4 389 kb/s
Writing frontend : TombDoc

Video
ID : 1
Format : HEVC
Format/Info : High Efficiency Video Coding
Format profile : Main [email protected]@Main
Codec ID : V_MPEGH/ISO/HEVC
Duration : 2 h 10 min
Bit rate : 3 349 kb/s
Width : 1 920 pixels
Height : 1 080 pixels
Display aspect ratio : 16:9
Frame rate mode : Constant
Frame rate : 23.976 (24000/1001) FPS
Color space : YUV
Chroma subsampling : 4:2:0
Bit depth : 10 bits
Bits/(Pixel*Frame) : 0.067
Stream size : 3.05 GiB (76%)
Writing library : x265 3.0_RC+11-9a975542fe39:[Windows][MSVC 1920][64 bit] 10bit
Encoding settings : cpuid=1049583 / frame-threads=5 / numa-pools=16,16 / wpp / no-pmode / no-pme / no-psnr / no-ssim / log-level=2 / input-csp=1 / input-res=1920x1080 / interlace=0 / total-frames=187652 / level-idc=0 / high-tier=1 / uhd-bd=0 / ref=4 / no-allow-non-conformance / no-repeat-headers / annexb / no-aud / no-hrd / info / hash=0 / no-temporal-layers / open-gop / min-keyint=23 / keyint=250 / gop-lookahead=0 / bframes=8 / b-adapt=2 / b-pyramid / bframe-bias=0 / rc-lookahead=25 / lookahead-slices=4 / scenecut=40 / radl=0 / no-splice / no-intra-refresh / ctu=64 / min-cu-size=8 / rect / no-amp / max-tu-size=32 / tu-inter-depth=1 / tu-intra-depth=1 / limit-tu=0 / rdoq-level=2 / dynamic-rd=0.00 / ssim-rd / signhide / no-tskip / nr-intra=0 / nr-inter=0 / no-constrained-intra / strong-intra-smoothing / max-merge=3 / limit-refs=3 / limit-modes / me=3 / subme=3 / merange=57 / temporal-mvp / weightp / no-weightb / no-analyze-src-pics / deblock=0:0 / sao / no-sao-non-deblock / rd=4 / no-early-skip / rskip / no-fast-intra / no-tskip-fast / no-cu-lossless / no-b-intra / no-splitrd-skip / rdpenalty=0 / psy-rd=0.00 / psy-rdoq=1.00 / no-rd-refine / no-lossless / cbqpoffs=0 / crqpoffs=0 / rc=abr / bitrate=3350 / qcomp=0.60 / qpstep=4 / stats-write=0 / stats-read=2 / cplxblur=20.0 / qblur=0.5 / ipratio=1.40 / pbratio=1.30 / aq-mode=3 / aq-strength=1.00 / cutree / zone-count=0 / no-strict-cbr / qg-size=32 / no-rc-grain / qpmax=69 / qpmin=0 / no-const-vbv / sar=0 / overscan=0 / videoformat=5 / range=0 / colorprim=2 / transfer=2 / colormatrix=2 / chromaloc=0 / display-window=0 / max-cll=0,0 / min-luma=0 / max-luma=1023 / log2-max-poc-lsb=8 / vui-timing-info / vui-hrd-info / slices=1 / no-opt-qp-pps / no-opt-ref-list-length-pps / no-multi-pass-opt-rps / scenecut-bias=0.05 / no-opt-cu-delta-qp / aq-motion / no-hdr / no-hdr-opt / no-dhdr10-opt / no-idr-recovery-sei / analysis-reuse-level=5 / scale-factor=0 / refine-intra=0 / refine-inter=0 / refine-mv=0 / refine-ctu-distortion=0 / no-limit-sao / ctu-info=0 / no-lowpass-dct / refine-analysis-type=0 / copy-pic=1 / max-ausize-factor=1.0 / no-dynamic-refine / no-single-sei / hevc-aq / qp-adaptation-range=1.00
Default : Yes
Forced : No

Audio #1
ID : 2
Format : E-AC-3
Format/Info : Enhanced AC-3
Commercial name : Dolby Digital Plus
Codec ID : A_EAC3
Duration : 2 h 10 min
Bit rate mode : Constant
Bit rate : 640 kb/s
Channel(s) : 6 channels
Channel layout : L R C LFE Ls Rs
Sampling rate : 48.0 kHz
Frame rate : 31.250 FPS (1536 SPF)
Compression mode : Lossy
Delay relative to video : 33 ms
Stream size : 597 MiB (15%)
Title : Org Amz DD+ 5.1 640Kbps ~ TombDoc
Language : Hindi
Service kind : Complete Main
Default : Yes
Forced : Yes

Audio #2
ID : 3
Format : AC-3
Format/Info : Audio Coding 3
Commercial name : Dolby Digital
Codec ID : A_AC3
Duration : 2 h 10 min
Bit rate mode : Constant
Bit rate : 384 kb/s
Channel(s) : 6 channels
Channel layout : L R C LFE Ls Rs
Sampling rate : 48.0 kHz
Frame rate : 31.250 FPS (1536 SPF)
Bit depth : 16 bits
Compression mode : Lossy
Stream size : 358 MiB (9%)
Title : DD 5.1 English
Language : English
Service kind : Complete Main
Default : No
Forced : No

Text
ID : 4
Format : PGS
Muxing mode : zlib
Codec ID : S_HDMV/PGS
Codec ID/Info : Picture based subtitle format used on BDs/HD-DVDs
Duration : 2 h 10 min
Bit rate : 38.4 kb/s
Count of elements : 2876
Stream size : 35.8 MiB (1%)
Title : Eng BD-PGS
Language : English
Default : Yes
Forced : Yes

Menu
00:00:00.000 : en:Chapter 01
00:01:38.432 : en:Chapter 02
00:07:59.479 : en:Chapter 03
00:09:59.098 : en:Chapter 04
00:12:47.350 : en:Chapter 05
00:17:44.981 : en:Chapter 06
00:24:18.540 : en:Chapter 07
00:31:54.746 : en:Chapter 08
00:34:30.944 : en:Chapter 09
00:35:34.424 : en:Chapter 10
00:39:43.131 : en:Chapter 11
00:47:31.098 : en:Chapter 12
00:52:54.880 : en:Chapter 13
00:57:28.945 : en:Chapter 14
01:00:13.443 : en:Chapter 15
01:03:37.731 : en:Chapter 16
01:11:51.015 : en:Chapter 17
01:19:43.862 : en:Chapter 18
01:24:06.500 : en:Chapter 19
01:30:25.003 : en:Chapter 20
01:35:57.627 : en:Chapter 21
01:42:40.196 : en:Chapter 22
01:49:04.997 : en:Chapter 23
01:55:04.981 : en:Chapter 24
01:59:47.597 : en:Chapter 25
02:06:41.969 : en:Chapter 26



Code:

Source: Primal Fear 1996 1080p EUR Blu-ray AVC TrueHD 5.1-OLDHAM





Related Torrents

torrent name size age seed leech
2.5 GB 3 minutes 64 96
450.2 MB 3 minutes 110 170
331.9 MB 3 minutes 261 422
203.9 MB 7 minutes 488 137
369.5 MB 7 minutes 148 194

Sharing Widget


Download torrent
4.0 GB
seeders:1214
leechers:386
Primal Fear (1996) 1080p 10bit Bluray x265 HEVC [Org DD 5 1 Hindi + DD 5 1 English] ESub ~ TombDoc



To share this torrent use the code below and insert it into comments, status messages, forum posts or your signature.

Torrent: Primal Fear (1996) 1080p 10bit Bluray x265 HEVC [Org DD 5 1 Hindi + DD 5 1 English] ESub ~ TombDoc

Comments

Latest Searches