Overlord 2018 720p BluRay x264 ESub [MW] torrent download

seeders: 227
leechers: 163
updated:
Added ago by moviezworldz ***** in Movies
Torrent Downloaded 10 times.
Info Hash: C944D57A4F08924250B080C5D1E56D7FDED4A23F


Torrent Files

Overlord 2018 720p BluRay x264 ESub [MW] (Size: 955.2 MB)
  Overlord 2018 720p BluRay x264 ESub [MW] 955.2 MB

Torrent Description







General
Format : Matroska
Format version : Version 4
File size : 955 MiB
Duration : 1 h 49 min
Overall bit rate : 1 216 kb/s

Video
ID : 1
Format : AVC
Format/Info : Advanced Video Codec
Format profile : [email protected]
Format settings : CABAC / 4 Ref Frames
Format settings, CABAC : Yes
Format settings, RefFrames : 4 frames
Codec ID : V_MPEG4/ISO/AVC
Duration : 1 h 49 min
Bit rate : 1 100 kb/s
Width : 1 280 pixels
Height : 536 pixels
Display aspect ratio : 2.40:1
Frame rate mode : Constant
Frame rate : 23.976 (24000/1001) FPS
Color space : YUV
Chroma subsampling : 4:2:0
Bit depth : 8 bits
Scan type : Progressive
Bits/(Pixel*Frame) : 0.067
Stream size : 853 MiB (89%)
Writing library : x264 core 157 r2935 545de2f

Audio
ID : 2
Format : AAC LC
Codec ID : A_AAC-2
Duration : 1 h 49 min
Bit rate : 128 kb/s
Channel(s) : 2 channels
Channel layout : L R
Sampling rate : 48.0 kHz
Frame rate : 46.875 FPS (1024 SPF)
Compression mode : Lossy
Stream size : 101 MiB (11%)
Language : English
Default : Yes
Forced : No

Text #1
ID : 3
Format : UTF-8
Codec ID : S_TEXT/UTF8
Codec ID/Info : UTF-8 Plain Text
Duration : 1 h 42 min
Bit rate : 49 b/s
Count of elements : 1465
Stream size : 37.2 KiB (0%)
Default : Yes
Forced : No


Click To View Image









Related Torrents

torrent name size age seed leech
479.2 MB 1 minute 589 403
1.7 GB 4 minutes 492 482
782.78 MB 5 minutes 265 200
607.5 MB 5 minutes 789 195
443.96 MB 5 minutes 674 326

Sharing Widget


Download torrent
955.2 MB
seeders:1214
leechers:386
Overlord 2018 720p BluRay x264 ESub [MW]



To share this torrent use the code below and insert it into comments, status messages, forum posts or your signature.

Torrent: Overlord 2018 720p BluRay x264 ESub [MW]

Comments

Latest Searches