Masquerade 2012 720p BrRip x265 HEVCBay torrent download

seeders: 26
leechers: 194
updated:
Added ago by g3m696 ***** in Movies
Torrent Downloaded 10 times.
Info Hash: 67B1788209D34D14B69A1DE074293CBA8BA19385


Torrent Files

Masquerade 2012 720p BrRip x265 HEVCBay (Size: 392.5 MB)
  Masquerade 2012 720p BrRip x265 HEVCBay 392.5 MB

Torrent Description



hevcbay.com

Code:

General
Unique ID : 339732892111362477216813856038526343754 (0xFF962CCCDE807A3ACCF4A873992B5A4A)
Complete name : Masquerade.2012.720p.BrRip.x265.HEVCBay.com.mkv
Format : Matroska
Format version : Version 4
File size : 392 MiB
Duration : 2 h 11 min
Overall bit rate : 417 kb/s
Movie name : Masquerade.2012.720p.BrRip.x265.HEVCBay.com.mkv
Encoded date : UTC 2019-02-12 01:10:55
Writing application : hevcbay
Writing library : hevcbay.com / Lavf58.22.100
Comment : Encoded by hevcbay.com
ENCODED-BY : hevcbay.com

Video
ID : 1
Format : HEVC
Format/Info : High Efficiency Video Coding
Format profile : [email protected]@Main
Codec ID : V_MPEGH/ISO/HEVC
Duration : 2 h 11 min
Bit rate : 364 kb/s
Width : 1 280 pixels
Height : 544 pixels
Display aspect ratio : 2.35:1
Frame rate mode : Constant
Frame rate : 23.976 (24000/1001) FPS
Color space : YUV
Chroma subsampling : 4:2:0
Bit depth : 8 bits
Bits/(Pixel*Frame) : 0.022
Stream size : 343 MiB (87%)
Writing library : Lavc58.42.102 libx265
Language : English
Default : Yes
Forced : No
Color range : Limited

Audio
ID : 2
Format : AAC LC SBR PS
Format/Info : Advanced Audio Codec Low Complexity with Spectral Band Replication and Parametric Stereo
Commercial name : HE-AACv2
Format settings : NBC
Codec ID : A_AAC-29
Duration : 2 h 11 min
Bit rate : 51.1 kb/s
Channel(s) : 2 channels
Channel layout : C
Sampling rate : 48.0 kHz
Frame rate : 23.438 FPS (2048 SPF)
Compression mode : Lossy
Delay relative to video : -148 ms
Stream size : 48.0 MiB (12%)
Writing library : Lavc58.42.102 libfdk_aac
Language : Korean
Default : Yes
Forced : No

Text
ID : 3
Format : UTF-8
Codec ID : S_TEXT/UTF8
Codec ID/Info : UTF-8 Plain Text
Duration : 2 h 7 min
Bit rate : 40 b/s
Count of elements : 1273
Stream size : 37.5 KiB (0%)
Language : English
Default : Yes
Forced : No










Related Torrents

torrent name size age seed leech
3.5 GB 31 seconds 666 403
699.9 MB 31 seconds 777 98
227.8 MB 31 seconds 732 55
179.7 MB 31 seconds 354 493
844.4 MB 31 seconds 278 436

Sharing Widget


Download torrent
392.5 MB
seeders:1214
leechers:386
Masquerade 2012 720p BrRip x265 HEVCBay



To share this torrent use the code below and insert it into comments, status messages, forum posts or your signature.

Torrent: Masquerade 2012 720p BrRip x265 HEVCBay

Comments

Latest Searches