Knight and Day 2010 EXTENDED 720p BrRip x265 HEVCBay torrent download

seeders: 520
leechers: 254
updated:
Added ago by g3m696 ***** in Movies
Torrent Downloaded 10 times.
Info Hash: 7A61FC9FB753393D86517C3D914397989BA2702C


Torrent Files

Knight and Day 2010 EXTENDED 720p BrRip x265 HEVCBay (Size: 525.2 MB)
  Knight and Day 2010 EXTENDED 720p BrRip x265 HEVCBay 525.2 MB

Torrent Description



hevcbay.com

Code:

General
Unique ID : 260875753117233006374318844532594751254 (0xC442D7AC118137963A94661554BAB716)
Complete name : Knight.and.Day.2010.EXTENDED.720p.BrRip.x265.HEVCBay.com.mkv
Format : Matroska
Format version : Version 4
File size : 525 MiB
Duration : 1 h 57 min
Overall bit rate : 627 kb/s
Movie name : Knight.and.Day.2010.EXTENDED.720p.BrRip.x265.HEVCBay.com.mkv
Encoded date : UTC 2019-02-12 01:37:07
Writing application : hevcbay
Writing library : hevcbay.com / Lavf58.22.100
Comment : Encoded by hevcbay.com
ENCODED-BY : hevcbay.com

Video
ID : 1
Format : HEVC
Format/Info : High Efficiency Video Coding
Format profile : [email protected]@Main
Codec ID : V_MPEGH/ISO/HEVC
Duration : 1 h 57 min
Bit rate : 570 kb/s
Width : 1 280 pixels
Height : 534 pixels
Display aspect ratio : 2.40:1
Original display aspect ratio : 2.40:1
Frame rate mode : Constant
Frame rate : 23.976 (24000/1001) FPS
Color space : YUV
Chroma subsampling : 4:2:0
Bit depth : 8 bits
Bits/(Pixel*Frame) : 0.035
Stream size : 478 MiB (91%)
Writing library : Lavc58.42.102 libx265
Language : English
Default : No
Forced : No
Color range : Limited

Audio
ID : 2
Format : AAC LC SBR PS
Format/Info : Advanced Audio Codec Low Complexity with Spectral Band Replication and Parametric Stereo
Commercial name : HE-AACv2
Format settings : NBC
Codec ID : A_AAC-29
Duration : 1 h 57 min
Bit rate : 53.9 kb/s
Channel(s) : 2 channels
Channel layout : C
Sampling rate : 48.0 kHz
Frame rate : 23.438 FPS (2048 SPF)
Compression mode : Lossy
Delay relative to video : -148 ms
Stream size : 45.2 MiB (9%)
Writing library : Lavc58.42.102 libfdk_aac
Language : English
Default : Yes
Forced : No

Text
ID : 3
Format : UTF-8
Codec ID : S_TEXT/UTF8
Codec ID/Info : UTF-8 Plain Text
Duration : 1 h 56 min
Bit rate : 59 b/s
Count of elements : 1622
Stream size : 50.3 KiB (0%)
Language : English
Default : Yes
Forced : No








Related Torrents

torrent name size age seed leech
963.9 MB 3 minutes 300 268
537.9 MB 3 minutes 366 166
317.9 MB 3 minutes 623 90
2.5 GB 3 minutes 149 40
966.3 MB 3 minutes 311 271

Sharing Widget


Download torrent
525.2 MB
seeders:1214
leechers:386
Knight and Day 2010 EXTENDED 720p BrRip x265 HEVCBay



To share this torrent use the code below and insert it into comments, status messages, forum posts or your signature.

Torrent: Knight and Day 2010 EXTENDED 720p BrRip x265 HEVCBay

Comments

Latest Searches