Hannibal 2001 720p BluRay x264 Eng Hindi AC3 DD 5 1 [Team SSX] torrent download

seeders: 622
leechers: 296
updated:
Added ago by DarkRelease ***** in Movies
Torrent Downloaded 10 times.
Info Hash: D04B7EC4B5E747240DB7D6C12BF329F725CAC68D


Torrent Files

Hannibal 2001 720p BluRay x264 Eng-Hindi AC3 DD 5 1 [Team SSX] (Size: 1.4 GB)
  Hannibal 2001 720p BluRay x264 Eng-Hindi AC3 DD 5 1 [Team SSX] 1.4 GB

Torrent Description





Hannibal 2001 720p BluRay x264 Eng-Hindi AC3 DD 5.1 [Team SSX]




General

Format : Matroska
Format version : Version 4
File size : 1.42 GiB
Duration : 2 h 11 min
Overall bit rate : 1 543 kb/s



Video
ID : 1
Format : AVC
Format/Info : Advanced Video Codec
Format profile : [email protected]
Format settings : CABAC / 9 Ref Frames
Format settings, CABAC : Yes
Format settings, RefFrames : 9 frames
Codec ID : V_MPEG4/ISO/AVC
Duration : 2 h 11 min
Bit rate : 806 kb/s
Width : 1 280 pixels
Height : 688 pixels
Display aspect ratio : 1.85:1
Frame rate mode : Constant
Frame rate : 23.976 (24000/1001) FPS
Color space : YUV
Chroma subsampling : 4:2:0
Bit depth : 8 bits
Scan type : Progressive
Bits/(Pixel*Frame) : 0.038
Stream size : 758 MiB (52%)
Title : Team SSX
Default : Yes
Forced : No

Audio #1
ID : 2
Format : AAC LC
Format/Info : Advanced Audio Codec Low Complexity
Codec ID : A_AAC-2
Duration : 2 h 11 min
Bit rate : 96.0 kb/s
Channel(s) : 2 channels
Channel layout : L R
Sampling rate : 48.0 kHz
Frame rate : 46.875 FPS (1024 SPF)
Compression mode : Lossy
Delay relative to video : -125 ms
Stream size : 90.1 MiB (6%)
Title : Team SSX
Language : English
Default : No
Forced : No

Audio #2
ID : 3
Format : E-AC-3
Format/Info : Enhanced AC-3
Commercial name : Dolby Digital Plus
Codec ID : A_EAC3
Duration : 2 h 11 min
Bit rate mode : Constant
Bit rate : 640 kb/s
Channel(s) : 6 channels
Channel layout : L R C LFE Ls Rs
Sampling rate : 48.0 kHz
Frame rate : 31.250 FPS (1536 SPF)
Compression mode : Lossy
Delay relative to video : 1 s 867 ms
Stream size : 601 MiB (41%)
Title : Team SSX
Language : Hindi
Service kind : Complete Main
Default : Yes
Forced : Yes












Thanx to HAMMER for Hindi Audio

[/Center]



Related Torrents

torrent name size age seed leech
21.68 MB 2 minutes 65 349
11.8 MB 2 minutes 118 161
17.7 MB 2 minutes 42 467
843.2 MB 1 minute 21 320
317.5 MB 1 minute 400 111

Sharing Widget


Download torrent
1.4 GB
seeders:1214
leechers:386
Hannibal 2001 720p BluRay x264 Eng-Hindi AC3 DD 5 1 [Team SSX]



To share this torrent use the code below and insert it into comments, status messages, forum posts or your signature.

Torrent: Hannibal 2001 720p BluRay x264 Eng-Hindi AC3 DD 5 1 [Team SSX]

Comments

Latest Searches