Despicable Me (2010) NL Subs 1080p BanaanDMS torrent download

seeders: 177
leechers: 299
updated:
Added ago by BanaanDMS ***** in Movies
Torrent Downloaded 10 times.
Info Hash: ABC5C743180CB2423A7F5C7DF64C055C46F27F38


Torrent Files

Despicable Me (2010) NL Subs 1080p BanaanDMS (Size: 2.4 GB)
  Despicable Me (2010) NL Subs 1080p BanaanDMS 2.4 GB

Torrent Description




Despicable Me


When a criminal mastermind uses a trio of orphan girls as pawns for a grand scheme, he finds their love is profoundly changing him for the better.










General
Format : MPEG-4
Format profile : Base Media / Version 2
Codec ID : mp42 (isom/iso2/avc1/mp41)
File size : 2.44 GiB
Duration : 1 h 34 min
Overall bit rate mode : Variable
Overall bit rate : 3 688 kb/s
Writing application : HandBrake 1.0.7 2017040900

Video
ID : 1
Format : AVC
Format/Info : Advanced Video Codec
Format profile : [email protected]
Format settings : CABAC / 4 Ref Frames
Format settings, CABAC : Yes
Format settings, RefFrames : 4 frames
Codec ID : avc1
Codec ID/Info : Advanced Video Coding
Duration : 1 h 34 min
Bit rate : 3 521 kb/s
Width : 1 920 pixels
Height : 1 040 pixels
Display aspect ratio : 1.85:1
Frame rate mode : Variable
Frame rate : 23.976 (24000/1001) FPS
Minimum frame rate : 23.974 FPS
Maximum frame rate : 23.981 FPS
Color space : YUV
Chroma subsampling : 4:2:0
Bit depth : 8 bits
Scan type : Progressive
Bits/(Pixel*Frame) : 0.074
Stream size : 2.33 GiB (95%)
Writing library : x264 core 148 r2708 86b7198
Encoding settings : cabac=1 / ref=1 / deblock=1:0:0 / analyse=0x1:0x111 / me=hex / subme=2 / psy=1 / psy_rd=1.00:0.00 / mixed_ref=0 / me_range=16 / chroma_me=1 / trellis=0 / 8x8dct=0 / cqm=0 / deadzone=21,11 / fast_pskip=1 / chroma_qp_offset=0 / threads=24 / lookahead_threads=8 / sliced_threads=0 / nr=0 / decimate=1 / interlaced=0 / bluray_compat=0 / constrained_intra=0 / bframes=3 / b_pyramid=2 / b_adapt=1 / b_bias=0 / direct=1 / weightb=1 / open_gop=0 / weightp=1 / keyint=240 / keyint_min=24 / scenecut=40 / intra_refresh=0 / rc_lookahead=10 / rc=crf / mbtree=1 / crf=20.0 / qcomp=0.60 / qpmin=0 / qpmax=69 / qpstep=4 / vbv_maxrate=20000 / vbv_bufsize=25000 / crf_max=0.0 / nal_hrd=none / filler=0 / ip_ratio=1.40 / aq=1:1.00
Color range : Limited
Color primaries : BT.709
Transfer characteristics : BT.709
Matrix coefficients : BT.709
Codec configuration box : avcC

Audio
ID : 2
Format : AAC LC
Format/Info : Advanced Audio Codec Low Complexity
Codec ID : mp4a-40-2
Duration : 1 h 34 min
Bit rate mode : Variable
Bit rate : 160 kb/s
Channel(s) : 2 channels
Channel layout : L R
Sampling rate : 48.0 kHz
Frame rate : 46.875 FPS (1024 SPF)
Compression mode : Lossy
Stream size : 108 MiB (4%)
Title : Stereo / Stereo
Language : Dutch
Default : Yes
Alternate group : 1



Related Torrents

torrent name size age seed leech
85.4 MB 1 minute 330 27
1.2 GB 1 minute 472 469
2.49 GB 10 minutes 616 489
306.28 MB 10 minutes 486 280
229.28 MB 10 minutes 215 400

Sharing Widget


Download torrent
2.4 GB
seeders:1214
leechers:386
Despicable Me (2010) NL Subs 1080p BanaanDMS



To share this torrent use the code below and insert it into comments, status messages, forum posts or your signature.

Torrent: Despicable Me (2010) NL Subs 1080p BanaanDMS

Comments

Latest Searches