Dashing Jigarwala 3 (Velipadinte Pusthakam) 2019 Hindi Dubbed HDRip 720p 970MB torrent download

seeders: 479
leechers: 403
updated:
Added ago by worldfree1 ***** in Movies
Torrent Downloaded 10 times.
Info Hash: 69C1F933DD3AAB7A2364C68A3FC6FFF570205FBC


Torrent Files

Dashing Jigarwala 3 (Velipadinte Pusthakam) 2019 Hindi Dubbed HDRip 720p 970MB (Size: 970.7 MB)
  Dashing Jigarwala 3 (Velipadinte Pusthakam) 2019 Hindi Dubbed HDRip 720p 970MB 970.7 MB

Torrent Description
















Quote:

Format : Matroska
Format version : Version 4
File size : 971 MiB
Duration : 2 h 14 min
Overall bit rate : 1 006 kb/s
Encoded date : UTC 2019-02-12 14:57:29 / UTC
Writing application : mkvmerge v28.1.0 ('Morning Child') 64-bit
Writing library : libebml v1.3.6 + libmatroska v1.4.9 / Lavf55.12.0

Video
ID : 1
Format : AVC
Format/Info : Advanced Video Codec
Format profile : [email protected]
Format settings : CABAC / 8 Ref Frames
Format settings, CABAC : Yes
Format settings, RefFrames : 8 frames
Codec ID : V_MPEG4/ISO/AVC
Duration : 2 h 14 min
Bit rate : 900 kb/s
Width : 1 280 pixels
Height : 538 pixels
Display aspect ratio : 2.40:1
Frame rate mode : Constant
Frame rate : 25.000 FPS
Color space : YUV
Chroma subsampling : 4:2:0
Bit depth : 8 bits
Scan type : Progressive
Bits/(Pixel*Frame) : 0.052
Stream size : 876 MiB (90%)
Writing library : x264 core 142 r2479 dd79a61
Default : Yes
Forced : No
Color range : Limited
Color primaries : BT.709
Transfer characteristics : BT.709
Matrix coefficients : BT.709

Audio
ID : 2
Format : AAC LC SBR
Format/Info : Advanced Audio Codec Low Complexity with Spectral Band Replication
Commercial name : HE-AAC
Format settings : NBC
Codec ID : A_AAC-5
Duration : 2 h 14 min
Bit rate : 96.0 kb/s
Channel(s) : 2 channels
Channel layout : L R
Sampling rate : 44.1 kHz
Frame rate : 21.533 FPS (2048 SPF)
Compression mode : Lossy
Delay relative to video : -115 ms
Stream size : 92.6 MiB (10%)
Default : Yes
Forced : No



Related Torrents

torrent name size age seed leech
2.7 GB 5 minutes 340 148
1.0 GB 6 minutes 352 432
350.8 MB 6 minutes 520 58
269.0 MB 6 minutes 333 427
956.0 MB 6 minutes 156 94

Sharing Widget


Download torrent
970.7 MB
seeders:1214
leechers:386
Dashing Jigarwala 3 (Velipadinte Pusthakam) 2019 Hindi Dubbed HDRip 720p 970MB



To share this torrent use the code below and insert it into comments, status messages, forum posts or your signature.

Torrent: Dashing Jigarwala 3 (Velipadinte Pusthakam) 2019 Hindi Dubbed HDRip 720p 970MB

Comments

Latest Searches