Charlie St Coud 720p BluRay x264 Eng Hindi AC3 DD 5 1 [Team SSX] torrent download

seeders: 506
leechers: 84
updated:
Added ago by DarkRelease ***** in Movies
Torrent Downloaded 10 times.
Info Hash: 7A080C46FAD60B134CC330D77136D3D35B08B2B8


Torrent Files

Charlie St Coud 720p BluRay x264 Eng-Hindi AC3 DD 5 1 [Team SSX] (Size: 1.3 GB)
  Charlie St Coud 720p BluRay x264 Eng-Hindi AC3 DD 5 1 [Team SSX] 1.3 GB

Torrent Description





Charlie St.Coud 720p BluRay x264 Eng-Hindi AC3 DD 5.1 [Team SSX]







General

Format                                   : Matroska
Format version                           : Version 4
File size                                : 1.27 GiB
Duration                                 : 1 h 39 min
Overall bit rate                         : 1 835 kb/s


Video
ID                                       : 1
Format                                   : AVC
Format/Info                              : Advanced Video Codec
Format profile                           : [email protected]
Format settings                          : CABAC / 7 Ref Frames
Format settings, CABAC                   : Yes
Format settings, RefFrames               : 7 frames
Codec ID                                 : V_MPEG4/ISO/AVC
Duration                                 : 1 h 39 min
Bit rate                                 : 1 097 kb/s
Width                                    : 1 280 pixels
Height                                   : 528 pixels
Display aspect ratio                     : 2.40:1
Frame rate mode                          : Constant
Frame rate                               : 23.976 (24000/1001) FPS
Color space                              : YUV
Chroma subsampling                       : 4:2:0
Bit depth                                : 8 bits
Scan type                                : Progressive
Bits/(Pixel*Frame)                       : 0.068
Stream size                              : 780 MiB (60%)
Default                                  : Yes
Forced                                   : No

Audio #1
ID                                       : 2
Format                                   : AAC LC
Format/Info                              : Advanced Audio Codec Low Complexity
Codec ID                                 : A_AAC-2
Duration                                 : 1 h 39 min
Bit rate                                 : 96.0 kb/s
Channel(s)                               : 2 channels
Channel layout                           : L R
Sampling rate                            : 48.0 kHz
Frame rate                               : 46.875 FPS (1024 SPF)
Compression mode                         : Lossy
Delay relative to video                  : -125 ms
Stream size                              : 68.2 MiB (5%)
Language                                 : English
Default                                  : No
Forced                                   : No

Audio #2
ID                                       : 3
Format                                   : E-AC-3
Format/Info                              : Enhanced AC-3
Commercial name                          : Dolby Digital Plus
Codec ID                                 : A_EAC3
Duration                                 : 1 h 39 min
Bit rate mode                            : Constant
Bit rate                                 : 640 kb/s
Channel(s)                               : 6 channels
Channel layout                           : L R C LFE Ls Rs
Sampling rate                            : 48.0 kHz
Frame rate                               : 31.250 FPS (1536 SPF)
Compression mode                         : Lossy
Delay relative to video                  : 1 s 375 ms
Stream size                              : 455 MiB (35%)
Language                                 : Hindi
Service kind                             : Complete Main
Default                                  : Yes
Forced                                   : Yes

















Related Torrents

torrent name size age seed leech
492.23 MB 7 seconds 664 215
1 GB 7 seconds 315 490
1.0 GB 2 minutes 225 313
162.1 MB 6 minutes 728 256
984.9 MB 6 minutes 478 436

Sharing Widget


Download torrent
1.3 GB
seeders:1214
leechers:386
Charlie St Coud 720p BluRay x264 Eng-Hindi AC3 DD 5 1 [Team SSX]



To share this torrent use the code below and insert it into comments, status messages, forum posts or your signature.

Torrent: Charlie St Coud 720p BluRay x264 Eng-Hindi AC3 DD 5 1 [Team SSX]

Comments

Latest Searches