Charlie St Coud 1080p BluRay x264 Eng Hindi AC3 DD 5 1 [Team SSX] torrent download

seeders: 241
leechers: 434
updated:
Added ago by DarkRelease ***** in Movies
Torrent Downloaded 10 times.
Info Hash: 9DA40C406486547C6778CAEB7D664035E0D76A5F


Torrent Files

Charlie St Coud 1080p BluRay x264 Eng-Hindi AC3 DD 5 1 [Team SSX] (Size: 1.8 GB)
  Charlie St Coud 1080p BluRay x264 Eng-Hindi AC3 DD 5 1 [Team SSX] 1.8 GB

Torrent Description





Charlie St.Coud 1080p BluRay x264 Eng-Hindi AC3 DD 5.1 [Team SSX]



General

Format : Matroska
Format version : Version 4
File size : 1.79 GiB
Duration : 1 h 39 min
Overall bit rate : 2 585 kb/s



Video
ID : 1
Format : AVC
Format/Info : Advanced Video Codec
Format profile : [email protected]
Format settings : CABAC / 4 Ref Frames
Format settings, CABAC : Yes
Format settings, RefFrames : 4 frames
Codec ID : V_MPEG4/ISO/AVC
Duration : 1 h 39 min
Bit rate : 1 848 kb/s
Width : 1 920 pixels
Height : 800 pixels
Display aspect ratio : 2.40:1
Frame rate mode : Constant
Frame rate : 23.976 (24000/1001) FPS
Color space : YUV
Chroma subsampling : 4:2:0
Bit depth : 8 bits
Scan type : Progressive
Bits/(Pixel*Frame) : 0.050
Stream size : 1.28 GiB (71%)
Title : Team SSX
Default : Yes
Forced : No

Audio #1
ID : 2
Format : AAC LC
Format/Info : Advanced Audio Codec Low Complexity
Codec ID : A_AAC-2
Duration : 1 h 39 min
Bit rate : 96.0 kb/s
Channel(s) : 2 channels
Channel layout : L R
Sampling rate : 48.0 kHz
Frame rate : 46.875 FPS (1024 SPF)
Compression mode : Lossy
Delay relative to video : -83 ms
Stream size : 68.2 MiB (4%)
Title : Team SSX
Language : English
Default : No
Forced : No

Audio #2
ID : 3
Format : E-AC-3
Format/Info : Enhanced AC-3
Commercial name : Dolby Digital Plus
Codec ID : A_EAC3
Duration : 1 h 39 min
Bit rate mode : Constant
Bit rate : 640 kb/s
Channel(s) : 6 channels
Channel layout : L R C LFE Ls Rs
Sampling rate : 48.0 kHz
Frame rate : 31.250 FPS (1536 SPF)
Compression mode : Lossy
Delay relative to video : 1 s 417 ms
Stream size : 455 MiB (25%)
Title : Team SSX
Language : Hindi
Service kind : Complete Main
Default : Yes
Forced : Yes




















Related Torrents

torrent name size age seed leech
2.7 GB 4 minutes 680 473
1.0 GB 5 minutes 786 249
350.8 MB 5 minutes 798 45
269.0 MB 5 minutes 545 326
956.0 MB 5 minutes 172 134

Sharing Widget


Download torrent
1.8 GB
seeders:1214
leechers:386
Charlie St Coud 1080p BluRay x264 Eng-Hindi AC3 DD 5 1 [Team SSX]



To share this torrent use the code below and insert it into comments, status messages, forum posts or your signature.

Torrent: Charlie St Coud 1080p BluRay x264 Eng-Hindi AC3 DD 5 1 [Team SSX]

Comments

Latest Searches