Captain America Civil War (2016) NL Subs 720p BanaanDMS torrent download

seeders: 572
leechers: 103
updated:
Added ago by BanaanDMS ***** in Movies
Torrent Downloaded 10 times.
Info Hash: CF705EA51C1A4B3367C840FC7EF38F11ADA1E094


Torrent Files

Captain America Civil War (2016) NL Subs 720p BanaanDMS (Size: 1.8 GB)
  Captain America Civil War (2016) NL Subs 720p BanaanDMS 1.8 GB

Torrent Description




Captain America Civil War


Political involvement in the Avengers' activities causes a rift between Captain America and Iron Man.










General
Format : MPEG-4
Format profile : Base Media / Version 2
Codec ID : mp42 (isom/iso2/avc1/mp41)
File size : 1.78 GiB
Duration : 2 h 27 min
Overall bit rate mode : Variable
Overall bit rate : 1 726 kb/s
Writing application : HandBrake 0.10.2 2015060900

Video
ID : 1
Format : AVC
Format/Info : Advanced Video Codec
Format profile : [email protected]
Format settings : CABAC / 4 Ref Frames
Format settings, CABAC : Yes
Format settings, RefFrames : 4 frames
Codec ID : avc1
Codec ID/Info : Advanced Video Coding
Duration : 2 h 27 min
Bit rate : 1 559 kb/s
Width : 1 280 pixels
Height : 534 pixels
Display aspect ratio : 2.40:1
Original display aspect ratio : 2.40:1
Frame rate mode : Variable
Frame rate : 23.976 FPS
Minimum frame rate : 7.932 FPS
Maximum frame rate : 23.981 FPS
Color space : YUV
Chroma subsampling : 4:2:0
Bit depth : 8 bits
Scan type : Progressive
Bits/(Pixel*Frame) : 0.095
Stream size : 1.61 GiB (90%)
Writing library : x264 core 142 r2479 dd79a61
Encoding settings : cabac=1 / ref=1 / deblock=1:0:0 / analyse=0x1:0x111 / me=hex / subme=2 / psy=1 / psy_rd=1.00:0.00 / mixed_ref=0 / me_range=16 / chroma_me=1 / trellis=0 / 8x8dct=0 / cqm=0 / deadzone=21,11 / fast_pskip=1 / chroma_qp_offset=0 / threads=9 / lookahead_threads=3 / sliced_threads=0 / nr=0 / decimate=1 / interlaced=0 / bluray_compat=0 / constrained_intra=0 / bframes=3 / b_pyramid=2 / b_adapt=1 / b_bias=0 / direct=1 / weightb=1 / open_gop=0 / weightp=1 / keyint=240 / keyint_min=24 / scenecut=40 / intra_refresh=0 / rc_lookahead=10 / rc=crf / mbtree=1 / crf=20.0 / qcomp=0.60 / qpmin=0 / qpmax=69 / qpstep=4 / vbv_maxrate=20000 / vbv_bufsize=25000 / crf_max=0.0 / nal_hrd=none / filler=0 / ip_ratio=1.40 / aq=1:1.00
Color range : Limited
Color primaries : BT.709
Transfer characteristics : BT.709
Matrix coefficients : BT.709
Codec configuration box : avcC

Audio
ID : 2
Format : AAC LC
Format/Info : Advanced Audio Codec Low Complexity
Codec ID : mp4a-40-2
Duration : 2 h 27 min
Bit rate mode : Variable
Bit rate : 160 kb/s
Channel(s) : 2 channels
Channel layout : L R
Sampling rate : 48.0 kHz
Frame rate : 46.875 FPS (1024 SPF)
Compression mode : Lossy
Stream size : 169 MiB (9%)
Title : Stereo / Stereo
Default : Yes
Alternate group : 1



Related Torrents

torrent name size age seed leech
104.0 MB 2 minutes 256 351
152.6 MB 2 minutes 582 230
67.63 MB 4 minutes 152 182
1.05 GB 4 minutes 9 267
153.94 MB 4 minutes 797 294

Sharing Widget


Download torrent
1.8 GB
seeders:1214
leechers:386
Captain America Civil War (2016) NL Subs 720p BanaanDMS



To share this torrent use the code below and insert it into comments, status messages, forum posts or your signature.

Torrent: Captain America Civil War (2016) NL Subs 720p BanaanDMS

Comments

Latest Searches