A X L Un'amicizia Extraordinaria (2018) 720p H264 italian english Ac3 5 1 sub eng spa fre MIRCrew torrent download

seeders: 29
leechers: 250
updated:
Added ago by robbyrs ***** in Movies
Torrent Downloaded 10 times.
Info Hash: D47D036D3A4084BCDEED517BB672F245A827223F


Torrent Files

A-X-L - Un'amicizia Extraordinaria (2018) 720p H264 italian english Ac3-5 1 sub eng spa fre-MIRCrew (Size: 1.9 GB)
  A-X-L - Un'amicizia Extraordinaria (2018) 720p H264 italian english Ac3-5 1 sub eng spa fre-MIRCrew 1.9 GB

Torrent Description



A-X-L - Un'amicizia Extraordinaria (2018).720p.H264.italian.english.Ac3-5.1.sub.eng.spa.fre-MIRCrew


NO FOUND ONLY ORIGINAL RELEASE

My release is always in double track audio italian and Original audio
for select it use VLC or dvd player home
not use wmp

A-X-L - Un'amicizia Extraordinaria (2018)

Quality MIRCrew on HD 720p da  2,0 gb









GENERE: Fantascienza, Azione
ANNO: 2018
REGIA: Oliver Daly
PAESE: USA
DURATA: 100 Min



Alex Neustaedter, Becky G., Thomas Jane, Ted McGinley, Dominic Rains, Alex MacNicoll, Dorian Kingi



A-X-L: Un'amicizia extraordinaria potrebbe sembrare la classica storia di amicizia tra un giovane e il suo nuovo amico animale, ma in questo caso Oliver Daly aggiunge una dose di sci-fi, rinnovando il genere con una nuova veste high-tech.



A.X.L. is a top-secret, robotic dog created by the military to help protect tomorrow's soldiers. Code named by the scientists who created him, A.X.L. stands for Attack, Exploration, Logistics, and embodies the most advanced, next-generation artificial intelligence.

 





General
Unique ID                                : 167160231034717809627445500928059359597 (0x7DC1E3B2BC6B81421C79B2BDD2A1C16D)
Complete name                            : A-X-L Un'amicizia Extraordinaria (2018).720p.ita.eng-MIRCrew\A-X-L Un'amicizia Extraordinaria (2018).720p.ita.eng-MIRCrew.mkv
Format                                   : Matroska
Format version                           : Version 4 / Version 2
File size                                : 1.94 GiB
Duration                                 : 1h 38mn
Overall bit rate                         : 2 813 Kbps
Movie name                               : MIRCrew
Encoded date                             : UTC 2019-02-10T14:24:09Z
Writing application                      : mkvmerge v26.0.0 ('In The Game') 64-bit
Writing library                          : Lavf55.12.0

Video
ID                                       : 1
Format                                   : AVC
Format/Info                              : Advanced Video Codec
Format profile                           : [email protected]
Format settings, CABAC                   : Yes
Format settings, ReFrames                : 4 frames
Codec ID                                 : V_MPEG4/ISO/AVC
Duration                                 : 1h 38mn
Bit rate                                 : 2 000 Kbps
Width                                    : 1 280 pixels
Height                                   : 528 pixels
Display aspect ratio                     : 2.40:1
Frame rate                               : 23.976 fps
Color space                              : YUV
Chroma subsampling                       : 4:2:0
Bit depth                                : 8 bits
Scan type                                : Progressive
Bits/(Pixel*Frame)                       : 0.123
Stream size                              : 1.33 GiB (68%)
Title                                    : MIRCrew
Writing library                          : x264 core 142 r2479 dd79a61
Encoding settings                        : cabac=1 / ref=1 / deblock=1:0:0 / analyse=0x1:0x111 / me=hex / subme=2 / psy=1 / psy_rd=1.00:0.00 / mixed_ref=0 / me_range=16 / chroma_me=1 / trellis=0 / 8x8dct=0 / cqm=0 / deadzone=21,11 / fast_pskip=1 / chroma_qp_offset=0 / threads=6 / lookahead_threads=2 / sliced_threads=0 / nr=0 / decimate=1 / interlaced=0 / bluray_compat=0 / constrained_intra=0 / bframes=3 / b_pyramid=2 / b_adapt=1 / b_bias=0 / direct=1 / weightb=1 / open_gop=0 / weightp=1 / keyint=240 / keyint_min=24 / scenecut=40 / intra_refresh=0 / rc_lookahead=10 / rc=abr / mbtree=1 / bitrate=2000 / ratetol=1.0 / qcomp=0.60 / qpmin=0 / qpmax=69 / qpstep=4 / vbv_maxrate=50000 / vbv_bufsize=62500 / nal_hrd=none / filler=0 / ip_ratio=1.40 / aq=1:1.00
Language                                 : Italian
Default                                  : Yes
Forced                                   : No
DURATION                                 : 01:38:36.911000000
NUMBER_OF_FRAMES                         : 141864
NUMBER_OF_BYTES                          : 1463335602
_STATISTICS_WRITING_APP                  : mkvmerge v26.0.0 ('In The Game') 64-bit
_STATISTICS_WRITING_DATE_UTC             : 2019-02-10 16:30:24
_STATISTICS_TAGS                         : BPS DURATION NUMBER_OF_FRAMES NUMBER_OF_BYTES
Color primaries                          : BT.709-5, BT.1361, IEC 61966-2-4, SMPTE RP177
Transfer characteristics                 : BT.709-5, BT.1361
Matrix coefficients                      : BT.709-5, BT.1361, IEC 61966-2-4 709, SMPTE RP177

Audio #1
ID                                       : 2
Format                                   : AC-3
Format/Info                              : Audio Coding 3
Mode extension                           : CM (complete main)
Codec ID                                 : A_AC3
Duration                                 : 1h 38mn
Bit rate mode                            : Constant
Bit rate                                 : 448 Kbps
Channel(s)                               : 6 channels
Channel positions                        : Front: L C R, Side: L R, LFE
Sampling rate                            : 48.0 KHz
Bit depth                                : 16 bits
Compression mode                         : Lossy
Delay relative to video                  : -5ms
Stream size                              : 316 MiB (16%)
Title                                    : Ita Ac3 5.1
Language                                 : Italian
Default                                  : Yes
Forced                                   : No
DURATION                                 : 01:38:36.928000000
NUMBER_OF_FRAMES                         : 184904
NUMBER_OF_BYTES                          : 331347968
_STATISTICS_WRITING_APP                  : mkvmerge v26.0.0 ('In The Game') 64-bit
_STATISTICS_WRITING_DATE_UTC             : 2019-02-10 16:30:24
_STATISTICS_TAGS                         : BPS DURATION NUMBER_OF_FRAMES NUMBER_OF_BYTES

Audio #2
ID                                       : 3
Format                                   : AC-3
Format/Info                              : Audio Coding 3
Mode extension                           : CM (complete main)
Codec ID                                 : A_AC3
Duration                                 : 1h 38mn
Bit rate mode                            : Constant
Bit rate                                 : 384 Kbps
Channel(s)                               : 6 channels
Channel positions                        : Front: L C R, Side: L R, LFE
Sampling rate                            : 48.0 KHz
Bit depth                                : 16 bits
Compression mode                         : Lossy
Delay relative to video                  : -5ms
Stream size                              : 271 MiB (14%)
Title                                    : Eng Ac3 5.1
Language                                 : English
Default                                  : No
Forced                                   : No
DURATION                                 : 01:38:36.896000000
NUMBER_OF_FRAMES                         : 184903
NUMBER_OF_BYTES                          : 284011008
_STATISTICS_WRITING_APP                  : mkvmerge v26.0.0 ('In The Game') 64-bit
_STATISTICS_WRITING_DATE_UTC             : 2019-02-10 16:30:24
_STATISTICS_TAGS                         : BPS DURATION NUMBER_OF_FRAMES NUMBER_OF_BYTES



Related Torrents

torrent name size age seed leech
2.49 GB 7 minutes 620 442
306.28 MB 7 minutes 621 346
229.28 MB 7 minutes 190 347
825.83 MB 7 minutes 655 134
826.15 MB 7 minutes 376 358

Sharing Widget


Download torrent
1.9 GB
seeders:1214
leechers:386
A-X-L - Un'amicizia Extraordinaria (2018) 720p H264 italian english Ac3-5 1 sub eng spa fre-MIRCrew



To share this torrent use the code below and insert it into comments, status messages, forum posts or your signature.

Torrent: A-X-L - Un'amicizia Extraordinaria (2018) 720p H264 italian english Ac3-5 1 sub eng spa fre-MIRCrew

Comments

Latest Searches